Скачать через торрент музыку The Lost Fingers -2 СD - Lost In The 80s, Rendez-Vous Rose -2008-2009, FLAC бесплатно без регистрации torrent

Если у вас наблюдаются проблемы со скриншотами, переходом по ссылками, скачиванием торрентов - проблемы в блокировщике рекламы AdBlock. #хорошегоДня!


Статистика раздачи
Размер:  705 MB   |    Зарегистрирован:  5 лет 8 месяцев   |    .torrent скачан:  34 раза   |   
Раздают:  1  
   
Загрузка...
 
Автор Сообщение

Galfimbul

avatar Galfimbul



The Lost Fingers- 2CD (2008,2009)


Жанр: Gypsy Jazz/Swing
Год выпуска диска: 2008 - 2009
Производитель диска: Canada
Аудио кодек:FLAC
Тип рипа: tracks+.cue
Битрейт аудио: lossless
Продолжительность:56:09 +48:51
Релиз : Релизы взят с другого трекера.
Состав группы:
Christian Roberge: voix et guitare.
Byron Mikaloff:chœurs et guitare.
Alex Morrissette: chœurs et contrebasse.
Треклист:

01. (03:23) Ça plane pour moi avec Plastic Bertrand
02. (04:20) Ça fait rire les oiseaux avec La Compagnie Créole
03. (03:36) Aimes-tu la vie avec Éric Lapointe et Steve Hill
04. (04:06) Coeur de loup avec Philippe Lafontaine
05. (03:51) La dame en bleu avec Michel Louvain
06. (02:51) Ou aller
07. (03:28) Lady Marmalade avec Nanette Workman
08. (03:36) On va s'aimer avec Martine St-Clair
09. (03:43) J't'aime comme un fou
10. (05:20) Oxygène
11. (02:36) Illégal
12. (03:30) Ils s'aiment avec Daniel Lavoie
13. (03:21) Belleville Rendez-vous
14. (02:34) Moi mes souliers
15. (05:55) Ou aller (Remix)
Exact Audio Copy V0.99 prebeta 5 from 4. May 2009

EAC extraction logfile from 28. October 2009, 20:52

The Lost Fingers / Rendez-vous rose

Used drive : Optiarc DVD+-RW AD-7640S Adapter: 1 ID: 0

Read mode : Secure
Utilize accurate stream : Yes
Defeat audio cache : Yes
Make use of C2 pointers : No

Read offset correction : 6
Overread into Lead-In and Lead-Out : No
Fill up missing offset samples with silence : Yes
Delete leading and trailing silent blocks : No
Null samples used in CRC calculations : Yes
Used interface : Native Win32 interface for Win NT & 2000
Gap handling : Appended to previous track

Used output format : User Defined Encoder
Selected bitrate : 320 kBit/s
Quality : High
Add ID3 tag : No
Command line compressor : C:\Program Files (x86)\Exact Audio Copy\Flac\flac.exe
Additional command line options : -V -8 -T "artist=%a" -T "title=%t" -T "album=%g" -T "date=%y" -T "tracknumber=%n" -T "genre=%m" %s

TOC of the extracted CD

Track | Start | Length | Start sector | End sector
---------------------------------------------------------
1 | 0:00.00 | 3:23.03 | 0 | 15227
2 | 3:23.03 | 4:20.12 | 15228 | 34739
3 | 7:43.15 | 3:36.18 | 34740 | 50957
4 | 11:19.33 | 4:06.09 | 50958 | 69416
5 | 15:25.42 | 3:50.66 | 69417 | 86732
6 | 19:16.33 | 2:50.66 | 86733 | 99548
7 | 22:07.24 | 3:27.45 | 99549 | 115118
8 | 25:34.69 | 3:36.36 | 115119 | 131354
9 | 29:11.30 | 3:42.72 | 131355 | 148076
10 | 32:54.27 | 5:20.03 | 148077 | 172079
11 | 38:14.30 | 2:35.57 | 172080 | 183761
12 | 40:50.12 | 3:30.18 | 183762 | 199529
13 | 44:20.30 | 3:20.66 | 199530 | 214595
14 | 47:41.21 | 2:33.63 | 214596 | 226133
15 | 50:15.09 | 5:54.45 | 226134 | 252728

Track 1

Filename D:\EACrips\The Lost Fingers - 2009 - Rendez-vous rose [FLAC]\01 - Зa plane pour moi avec Plastic Bertrand.wav

Pre-gap length 0:00:02.00

Peak level 98.7 %
Track quality 100.0 %
Test CRC AACDAA2B
Copy CRC AACDAA2B
Track not present in AccurateRip database
Copy OK

Track 2

Filename D:\EACrips\The Lost Fingers - 2009 - Rendez-vous rose [FLAC]\02 - Зa fait rire les oiseaux avec La Compagnie Crйole.wav

Peak level 98.7 %
Track quality 100.0 %
Test CRC 7E53A49E
Copy CRC 7E53A49E
Track not present in AccurateRip database
Copy OK

Track 3

Filename D:\EACrips\The Lost Fingers - 2009 - Rendez-vous rose [FLAC]\03 - Aimes-tu la vie avec Йric Lapointe et Steve Hill.wav

Peak level 98.7 %
Track quality 100.0 %
Test CRC 8BCAB225
Copy CRC 8BCAB225
Track not present in AccurateRip database
Copy OK

Track 4

Filename D:\EACrips\The Lost Fingers - 2009 - Rendez-vous rose [FLAC]\04 - Coeur de loup avec Philippe Lafontaine.wav

Peak level 98.7 %
Track quality 100.0 %
Test CRC 52D3FCC8
Copy CRC 52D3FCC8
Track not present in AccurateRip database
Copy OK

Track 5

Filename D:\EACrips\The Lost Fingers - 2009 - Rendez-vous rose [FLAC]\05 - La dame en bleu avec Michel Louvain.wav

Peak level 98.7 %
Track quality 100.0 %
Test CRC 7B99DD1F
Copy CRC 7B99DD1F
Track not present in AccurateRip database
Copy OK

Track 6

Filename D:\EACrips\The Lost Fingers - 2009 - Rendez-vous rose [FLAC]\06 - Ou aller.wav

Peak level 98.8 %
Track quality 100.0 %
Test CRC 05B69E8D
Copy CRC 05B69E8D
Track not present in AccurateRip database
Copy OK

Track 7

Filename D:\EACrips\The Lost Fingers - 2009 - Rendez-vous rose [FLAC]\07 - Lady Marmalade avec Nanette Workman.wav

Peak level 98.8 %
Track quality 100.0 %
Test CRC A56C90F6
Copy CRC A56C90F6
Track not present in AccurateRip database
Copy OK

Track 8

Filename D:\EACrips\The Lost Fingers - 2009 - Rendez-vous rose [FLAC]\08 - On va s'aimer avec Martine St-Clair.wav

Peak level 98.7 %
Track quality 100.0 %
Test CRC 4F755D92
Copy CRC 4F755D92
Track not present in AccurateRip database
Copy OK

Track 9

Filename D:\EACrips\The Lost Fingers - 2009 - Rendez-vous rose [FLAC]\09 - J't'aime comme un fou.wav

Peak level 98.7 %
Track quality 100.0 %
Test CRC FD8C5751
Copy CRC FD8C5751
Track not present in AccurateRip database
Copy OK

Track 10

Filename D:\EACrips\The Lost Fingers - 2009 - Rendez-vous rose [FLAC]\10 - Oxygиne.wav

Peak level 98.7 %
Track quality 100.0 %
Test CRC 7452A95A
Copy CRC 7452A95A
Track not present in AccurateRip database
Copy OK

Track 11

Filename D:\EACrips\The Lost Fingers - 2009 - Rendez-vous rose [FLAC]\11 - Illйgal.wav

Peak level 98.7 %
Track quality 100.0 %
Test CRC 1D340F84
Copy CRC 1D340F84
Track not present in AccurateRip database
Copy OK

Track 12

Filename D:\EACrips\The Lost Fingers - 2009 - Rendez-vous rose [FLAC]\12 - Ils s'aiment avec Daniel Lavoie.wav

Peak level 98.7 %
Track quality 100.0 %
Test CRC 24A1694F
Copy CRC 24A1694F
Track not present in AccurateRip database
Copy OK

Track 13

Filename D:\EACrips\The Lost Fingers - 2009 - Rendez-vous rose [FLAC]\13 - Belleville Rendez-vous.wav

Peak level 98.7 %
Track quality 99.9 %
Test CRC 1D217E0D
Copy CRC 1D217E0D
Track not present in AccurateRip database
Copy OK

Track 14

Filename D:\EACrips\The Lost Fingers - 2009 - Rendez-vous rose [FLAC]\14 - Moi mes souliers.wav

Peak level 98.7 %
Track quality 100.0 %
Test CRC 1E411578
Copy CRC 1E411578
Track not present in AccurateRip database
Copy OK

Track 15

Filename D:\EACrips\The Lost Fingers - 2009 - Rendez-vous rose [FLAC]\15 - Ou aller (Remix).wav

Peak level 98.7 %
Track quality 100.0 %
Test CRC 81566CE2
Copy CRC 81566CE2
Track not present in AccurateRip database
Copy OK

None of the tracks are present in the AccurateRip database

No errors occurred

End of status report
REM GENRE Franco
REM DATE 2009
REM DISCID DB0D290F
REM COMMENT "ExactAudioCopy v0.99pb5"
PERFORMER "The Lost Fingers"
TITLE "Rendez-vous rose"
FILE "01 - Зa plane pour moi avec Plastic Bertrand.wav" WAVE
TRACK 01 AUDIO
TITLE "Зa plane pour moi avec Plastic Bertrand"
PERFORMER "The Lost Fingers"
INDEX 01 00:00:00
FILE "02 - Зa fait rire les oiseaux avec La Compagnie Crйole.wav" WAVE
TRACK 02 AUDIO
TITLE "Зa fait rire les oiseaux avec La Compagnie Crйole"
PERFORMER "The Lost Fingers"
INDEX 01 00:00:00
FILE "03 - Aimes-tu la vie avec Йric Lapointe et Steve Hill.wav" WAVE
TRACK 03 AUDIO
TITLE "Aimes-tu la vie avec Йric Lapointe et Steve Hill"
PERFORMER "The Lost Fingers"
INDEX 01 00:00:00
FILE "04 - Coeur de loup avec Philippe Lafontaine.wav" WAVE
TRACK 04 AUDIO
TITLE "Coeur de loup avec Philippe Lafontaine"
PERFORMER "The Lost Fingers"
INDEX 01 00:00:00
FILE "05 - La dame en bleu avec Michel Louvain.wav" WAVE
TRACK 05 AUDIO
TITLE "La dame en bleu avec Michel Louvain"
PERFORMER "The Lost Fingers"
INDEX 01 00:00:00
FILE "06 - Ou aller.wav" WAVE
TRACK 06 AUDIO
TITLE "Ou aller"
PERFORMER "The Lost Fingers"
INDEX 01 00:00:00
FILE "07 - Lady Marmalade avec Nanette Workman.wav" WAVE
TRACK 07 AUDIO
TITLE "Lady Marmalade avec Nanette Workman"
PERFORMER "The Lost Fingers"
INDEX 01 00:00:00
FILE "08 - On va s'aimer avec Martine St-Clair.wav" WAVE
TRACK 08 AUDIO
TITLE "On va s'aimer avec Martine St-Clair"
PERFORMER "The Lost Fingers"
INDEX 01 00:00:00
FILE "09 - J't'aime comme un fou.wav" WAVE
TRACK 09 AUDIO
TITLE "J't'aime comme un fou"
PERFORMER "The Lost Fingers"
INDEX 01 00:00:00
FILE "10 - Oxygиne.wav" WAVE
TRACK 10 AUDIO
TITLE "Oxygиne"
PERFORMER "The Lost Fingers"
INDEX 01 00:00:00
FILE "11 - Illйgal.wav" WAVE
TRACK 11 AUDIO
TITLE "Illйgal"
PERFORMER "The Lost Fingers"
INDEX 01 00:00:00
FILE "12 - Ils s'aiment avec Daniel Lavoie.wav" WAVE
TRACK 12 AUDIO
TITLE "Ils s'aiment avec Daniel Lavoie"
PERFORMER "The Lost Fingers"
INDEX 01 00:00:00
FILE "13 - Belleville Rendez-vous.wav" WAVE
TRACK 13 AUDIO
TITLE "Belleville Rendez-vous"
PERFORMER "The Lost Fingers"
INDEX 01 00:00:00
FILE "14 - Moi mes souliers.wav" WAVE
TRACK 14 AUDIO
TITLE "Moi mes souliers"
PERFORMER "The Lost Fingers"
INDEX 01 00:00:00
FILE "15 - Ou aller (Remix).wav" WAVE
TRACK 15 AUDIO
TITLE "Ou aller (Remix)"
PERFORMER "The Lost Fingers"
INDEX 01 00:00:00
Треклист:

01. (3:48) Pump Up The Jam
02. (3:51) You Give Love A Bad Name
03. (3:09) You Shook Me All Night Long
04. (4:13) Incognito
05. (03:42) Touch Me
06. (03:49) Part-Time Lover
07. (04:09) Fresh
08. (04:17) Billie Jean
09. (04:53) Careless Whisper
10. (03:31)Tainted Love
11. (04:06) Straight Up
12. (05:23) Black Velvet
Exact Audio Copy V0.99 prebeta 4 from 23. January 2008

EAC extraction logfile from 23. June 2009, 14:50

The Lost Fingers / Lost In The 80s

Used drive : HL-DT-STDVDRAM GH20NS10 Adapter: 3 ID: 0

Read mode : Secure
Utilize accurate stream : Yes
Defeat audio cache : Yes
Make use of C2 pointers : No

Read offset correction : 667
Overread into Lead-In and Lead-Out : No
Fill up missing offset samples with silence : Yes
Delete leading and trailing silent blocks : No
Null samples used in CRC calculations : Yes
Used interface : Native Win32 interface for Win NT & 2000
Gap handling : Appended to previous track

Used output format : User Defined Encoder
Selected bitrate : 768 kBit/s
Quality : High
Add ID3 tag : No
Command line compressor : C:\Program Files\FLAC\flac.exe
Additional command line options : -V -8 -T "artist=%a" -T "title=%t" -T "album=%g" -T "date=%y" -T "tracknumber=%n" %s

TOC of the extracted CD

Track | Start | Length | Start sector | End sector
---------------------------------------------------------
1 | 0:00.00 | 3:48.55 | 0 | 17154
2 | 3:48.55 | 3:51.24 | 17155 | 34503
3 | 7:40.04 | 3:09.14 | 34504 | 48692
4 | 10:49.18 | 4:13.04 | 48693 | 67671
5 | 15:02.22 | 3:41.63 | 67672 | 84309
6 | 18:44.10 | 3:48.46 | 84310 | 101455
7 | 22:32.56 | 4:08.41 | 101456 | 120096
8 | 26:41.22 | 4:17.19 | 120097 | 139390
9 | 30:58.41 | 4:53.34 | 139391 | 161399
10 | 35:52.00 | 3:31.30 | 161400 | 177254
11 | 39:23.30 | 4:05.42 | 177255 | 195671
12 | 43:28.72 | 5:22.57 | 195672 | 219878

Track 1

Filename C:\Hi there RIAA, What's up IFPI\The Lost Fingers - Lost In The 80s\01 - Pump Up The Jam (Made Famous By Technotronic).wav

Pre-gap length 0:00:02.00

Peak level 99.9 %
Track quality 100.0 %
Test CRC BA915F9D
Copy CRC BA915F9D
Accurately ripped (confidence 8) [812DB981]
Copy OK

Track 2

Filename C:\Hi there RIAA, What's up IFPI\The Lost Fingers - Lost In The 80s\02 - You Give Love A Bad Name (Made Famous By Bon Jovi).wav

Peak level 99.9 %
Track quality 100.0 %
Test CRC 99D5CDE2
Copy CRC 99D5CDE2
Accurately ripped (confidence 8) [D3B0860A]
Copy OK

Track 3

Filename C:\Hi there RIAA, What's up IFPI\The Lost Fingers - Lost In The 80s\03 - You Shook Me All Night Long (Made Famous By AC,DC).wav

Pre-gap length 0:00:02.00

Peak level 99.9 %
Track quality 100.0 %
Test CRC 5793314C
Copy CRC 5793314C
Accurately ripped (confidence 8) [1C6A1F32]
Copy OK

Track 4

Filename C:\Hi there RIAA, What's up IFPI\The Lost Fingers - Lost In The 80s\04 - Incognito (Made Famous By Céline Dion).wav

Pre-gap length 0:00:01.89

Peak level 99.9 %
Track quality 100.0 %
Test CRC 76A8B6D8
Copy CRC 76A8B6D8
Accurately ripped (confidence 7) [9EF7A27D]
Copy OK

Track 5

Filename C:\Hi there RIAA, What's up IFPI\The Lost Fingers - Lost In The 80s\05 - Touch Me (Made Famous By Samantha Fox).wav

Pre-gap length 0:00:00.16

Peak level 99.9 %
Track quality 99.9 %
Test CRC B072198A
Copy CRC B072198A
Accurately ripped (confidence 8) [6027F066]
Copy OK

Track 6

Filename C:\Hi there RIAA, What's up IFPI\The Lost Fingers - Lost In The 80s\06 - Part-Time Lover (Made Famous By Stevie Wonder).wav

Pre-gap length 0:00:01.74

Peak level 99.9 %
Track quality 100.0 %
Test CRC 6AE26972
Copy CRC 6AE26972
Accurately ripped (confidence 8) [E92E1590]
Copy OK

Track 7

Filename C:\Hi there RIAA, What's up IFPI\The Lost Fingers - Lost In The 80s\07 - Fresh (Made Famous By Kool & The Gang).wav

Pre-gap length 0:00:03.24

Peak level 99.9 %
Track quality 100.0 %
Test CRC C45C6764
Copy CRC C45C6764
Accurately ripped (confidence 8) [ED38A81E]
Copy OK

Track 8

Filename C:\Hi there RIAA, What's up IFPI\The Lost Fingers - Lost In The 80s\08 - Billie Jean (Made Famous By Michael Jackson).wav

Peak level 99.9 %
Track quality 100.0 %
Test CRC C6D0CAC1
Copy CRC C6D0CAC1
Accurately ripped (confidence 8) [FA28DFBE]
Copy OK

Track 9

Filename C:\Hi there RIAA, What's up IFPI\The Lost Fingers - Lost In The 80s\09 - Careless Whisper (Made Famous By George Michael).wav

Pre-gap length 0:00:01.80

Peak level 99.9 %
Track quality 100.0 %
Test CRC 2FF62E64
Copy CRC 2FF62E64
Accurately ripped (confidence 8) [E53D05C2]
Copy OK

Track 10

Filename C:\Hi there RIAA, What's up IFPI\The Lost Fingers - Lost In The 80s\10 - Tainted Love (Made Famous By Soft Cell).wav

Peak level 99.9 %
Track quality 100.0 %
Test CRC E8A15C7F
Copy CRC E8A15C7F
Accurately ripped (confidence 8) [46DEB6C9]
Copy OK

Track 11

Filename C:\Hi there RIAA, What's up IFPI\The Lost Fingers - Lost In The 80s\11 - Straight Up (Made Famous By Paula Abdul).wav

Pre-gap length 0:00:01.94

Peak level 99.9 %
Track quality 100.0 %
Test CRC BF846049
Copy CRC BF846049
Accurately ripped (confidence 8) [AE2BEB3A]
Copy OK

Track 12

Filename C:\Hi there RIAA, What's up IFPI\The Lost Fingers - Lost In The 80s\12 - Black Velvet (Made Famous By Alannah Myles).wav

Pre-gap length 0:00:03.29

Peak level 99.9 %
Track quality 99.9 %
Test CRC C44A3E95
Copy CRC C44A3E95
Accurately ripped (confidence 8) [A34FC643]
Copy OK

All tracks accurately ripped

No errors occurred
REM DATE 2008
REM DISCID 810B730C
REM COMMENT "ExactAudioCopy v0.99pb4"
PERFORMER "The Lost Fingers"
TITLE "Lost In The 80s"
FILE "01 - Pump Up The Jam (Made Famous By Technotronic).flac" WAVE
TRACK 01 AUDIO
TITLE "Pump Up The Jam (Made Famous By Technotronic)"
PERFORMER "The Lost Fingers"
INDEX 01 00:00:00
FILE "02 - You Give Love A Bad Name (Made Famous By Bon Jovi).flac" WAVE
TRACK 02 AUDIO
TITLE "You Give Love A Bad Name (Made Famous By Bon Jovi)"
PERFORMER "The Lost Fingers"
INDEX 01 00:00:00
TRACK 03 AUDIO
TITLE "You Shook Me All Night Long (Made Famous By AC/DC)"
PERFORMER "The Lost Fingers"
INDEX 00 03:49:24
FILE "03 - You Shook Me All Night Long (Made Famous By AC,DC).flac" WAVE
INDEX 01 00:00:00
TRACK 04 AUDIO
TITLE "Incognito (Made Famous By Céline Dion)"
PERFORMER "The Lost Fingers"
INDEX 00 03:07:22
FILE "04 - Incognito (Made Famous By Céline Dion).flac" WAVE
INDEX 01 00:00:00
TRACK 05 AUDIO
TITLE "Touch Me (Made Famous By Samantha Fox)"
PERFORMER "The Lost Fingers"
INDEX 00 04:12:67
FILE "05 - Touch Me (Made Famous By Samantha Fox).flac" WAVE
INDEX 01 00:00:00
TRACK 06 AUDIO
TITLE "Part-Time Lover (Made Famous By Stevie Wonder)"
PERFORMER "The Lost Fingers"
INDEX 00 03:40:07
FILE "06 - Part-Time Lover (Made Famous By Stevie Wonder).flac" WAVE
INDEX 01 00:00:00
TRACK 07 AUDIO
TITLE "Fresh (Made Famous By Kool & The Gang)"
PERFORMER "The Lost Fingers"
INDEX 00 03:45:28
FILE "07 - Fresh (Made Famous By Kool & The Gang).flac" WAVE
INDEX 01 00:00:00
FILE "08 - Billie Jean (Made Famous By Michael Jackson).flac" WAVE
TRACK 08 AUDIO
TITLE "Billie Jean (Made Famous By Michael Jackson)"
PERFORMER "The Lost Fingers"
INDEX 01 00:00:00
TRACK 09 AUDIO
TITLE "Careless Whisper (Made Famous By George Michael)"
PERFORMER "The Lost Fingers"
INDEX 00 04:15:34
FILE "09 - Careless Whisper (Made Famous By George Michael).flac" WAVE
INDEX 01 00:00:00
FILE "10 - Tainted Love (Made Famous By Soft Cell).flac" WAVE
TRACK 10 AUDIO
TITLE "Tainted Love (Made Famous By Soft Cell)"
PERFORMER "The Lost Fingers"
INDEX 01 00:00:00
TRACK 11 AUDIO
TITLE "Straight Up (Made Famous By Paula Abdul)"
PERFORMER "The Lost Fingers"
INDEX 00 03:29:34
FILE "11 - Straight Up (Made Famous By Paula Abdul).flac" WAVE
INDEX 01 00:00:00
TRACK 12 AUDIO
TITLE "Black Velvet (Made Famous By Alannah Myles)"
PERFORMER "The Lost Fingers"
INDEX 00 04:02:20
FILE "12 - Black Velvet (Made Famous By Alannah Myles).flac" WAVE
INDEX 01 00:00:00


Трекер:  [ 05-Фев-2012 15:50 ]

  

Скачать .torrent

Размер .torrent файла 17 KB


Размер: 705 MB
Хэш (hash) релиза: 1a63933cddfe6b962b61eedbe95a9f1ed2d7b396

Еще никто не оставлял запись к записи скачать торрент The Lost Fingers -2 СD - Lost In The 80s, Rendez-Vous Rose -2008-2009, FLAC . Будь первым!

!Обратная связь