Скачать через торрент музыку Louis Prima with Gia Maione, Sam Butera and the Witnesses - King Of Clubs - 2002, FLAC бесплатно без регистрации torrent

Если у вас наблюдаются проблемы со скриншотами, переходом по ссылками, скачиванием торрентов - проблемы в блокировщике рекламы AdBlock. #хорошегоДня!


Статистика раздачи
Размер:  196 MB   |    Зарегистрирован:  5 лет 8 месяцев   |    .torrent скачан:  32 раза   |   
Раздают:  1  
   
Загрузка...
 
Автор Сообщение

Galfimbul

avatar Galfimbul


Louis Prima with Gia Maione, Sam Butera and the Witnesses / King Of Clubs

Жанр: Lounge, Swing
Страна-производитель диска: USA
Год издания диска: 2002
Издатель (лейбл): PR1MA Magnagroove Records
Номер по каталогу: 65661389862
Страна: USA
Аудиокодек: FLAC (*.flac)
Тип рипа: tracks+.cue
Битрейт аудио: lossless
Продолжительность: 29:36
Источник (релизер): CD из коллекции
Наличие сканов в содержимом раздачи: да
Треклист:
01. Louis Prima - Them There Eyes
02. Sam Butera - Blues In The Night
03. Gia Maione - Goody Goody
04. Louis Prima - Buona Sera
05. Louis and Gia - Baby Won't You Please Come Home
06. Louis Prima - When I Wanted You
07. Sam Butera - French Poodle
08. Gia Maione - I Want You To Be My Baby
09. Louis and Gia - Dinga Won't Ding
10. Lou Sino - South Rampart Street Parade
11. Louis Prima - Che La Luna
 
Exact Audio Copy V1.0 beta 2 from 29. April 2011

EAC extraction logfile from 14. July 2011, 19:10

Louis Prima with Guia Maione / King Of Clubs

Used drive : ASUS DRW-1608P Adapter: 0 ID: 0

Read mode : SecureUtilize accurate stream : YesDefeat audio cache : YesMake use of C2 pointers : No

Read offset correction : 48Overread into Lead-In and Lead-Out : NoFill up missing offset samples with silence : YesDelete leading and trailing silent blocks : NoNull samples used in CRC calculations : YesUsed interface : Installed external ASPI interfaceGap handling : Appended to previous track

Used output format : User Defined EncoderSelected bitrate : 768 kBit/sQuality : HighAdd ID3 tag : NoCommand line compressor : C:\Program Files\Exact Audio Copy\FLAC\FLAC.EXEAdditional command line options : -8 -V -T "ARTIST=%artist%" -T "TITLE=%title%" -T "ALBUM=%albumtitle%" -T "DATE=%year%" -T "TRACKNUMBER=%tracknr%" -T "TOTALTRACKS=%numtracks%" -T "GENRE=%genre%" -T "ALBUMARTIST=%albumartist%" -T "ALBUM ARTIST=%albumartist%

TOC of the extracted CD

Track | Start | Length | Start sector | End sector --------------------------------------------------------- 1 | 0:00.00 | 4:16.42 | 0 | 19241 2 | 4:16.42 | 2:43.18 | 19242 | 31484 3 | 6:59.60 | 1:43.17 | 31485 | 39226 4 | 8:43.02 | 2:56.15 | 39227 | 52441 5 | 11:39.17 | 2:04.70 | 52442 | 61811 6 | 13:44.12 | 3:22.18 | 61812 | 76979 7 | 17:06.30 | 2:29.30 | 76980 | 88184 8 | 19:35.60 | 1:49.52 | 88185 | 96411 9 | 21:25.37 | 3:22.17 | 96412 | 111578 10 | 24:47.54 | 2:54.26 | 111579 | 124654 11 | 27:42.05 | 1:53.35 | 124655 | 133164

Track 1

Filename I:\Louis Prima with Gia Maione, Sam Butera and the Witnesses - King Of Clubs (2002) [FLAC] {PR1MA Magnagroove Records}\01 - Louis Prima - Them There Eyes.wav

Pre-gap length 0:00:02.00

Peak level 81.8 % Extraction speed 4.3 X Track quality 100.0 % Test CRC 2A1DF86A Copy CRC 2A1DF86A Accurately ripped (confidence 1) [2DD1138C] (AR v1) Copy OK

Track 2

Filename I:\Louis Prima with Gia Maione, Sam Butera and the Witnesses - King Of Clubs (2002) [FLAC] {PR1MA Magnagroove Records}\02 - Sam Butera - Blues In The Night.wav

Peak level 81.9 % Extraction speed 4.5 X Track quality 100.0 % Test CRC 874CECF9 Copy CRC 874CECF9 Accurately ripped (confidence 1) [AF0AF974] (AR v1) Copy OK

Track 3

Filename I:\Louis Prima with Gia Maione, Sam Butera and the Witnesses - King Of Clubs (2002) [FLAC] {PR1MA Magnagroove Records}\03 - Gia Maione - Goody Goody.wav

Peak level 83.1 % Extraction speed 3.4 X Track quality 99.8 % Test CRC 721B33E1 Copy CRC 721B33E1 Accurately ripped (confidence 1) [E3C7D061] (AR v1) Copy OK

Track 4

Filename I:\Louis Prima with Gia Maione, Sam Butera and the Witnesses - King Of Clubs (2002) [FLAC] {PR1MA Magnagroove Records}\04 - Louis Prima - Buona Sera.wav

Peak level 83.4 % Extraction speed 5.0 X Track quality 100.0 % Test CRC 187153BD Copy CRC 187153BD Accurately ripped (confidence 1) [99C7E2FD] (AR v1) Copy OK

Track 5

Filename I:\Louis Prima with Gia Maione, Sam Butera and the Witnesses - King Of Clubs (2002) [FLAC] {PR1MA Magnagroove Records}\05 - Louis and Gia - Baby Won't You Please Come Home.wav

Peak level 84.1 % Extraction speed 4.9 X Track quality 100.0 % Test CRC 6EE063C8 Copy CRC 6EE063C8 Accurately ripped (confidence 1) [027F541B] (AR v1) Copy OK

Track 6

Filename I:\Louis Prima with Gia Maione, Sam Butera and the Witnesses - King Of Clubs (2002) [FLAC] {PR1MA Magnagroove Records}\06 - Louis Prima - When I Wanted You.wav

Peak level 85.2 % Extraction speed 5.6 X Track quality 100.0 % Test CRC C35A49D3 Copy CRC C35A49D3 Accurately ripped (confidence 1) [40CFE040] (AR v1) Copy OK

Track 7

Filename I:\Louis Prima with Gia Maione, Sam Butera and the Witnesses - King Of Clubs (2002) [FLAC] {PR1MA Magnagroove Records}\07 - Sam Butera - French Poodle.wav

Peak level 84.1 % Extraction speed 4.7 X Track quality 99.9 % Test CRC 58FC559B Copy CRC 58FC559B Accurately ripped (confidence 1) [21D0469B] (AR v1) Copy OK

Track 8

Filename I:\Louis Prima with Gia Maione, Sam Butera and the Witnesses - King Of Clubs (2002) [FLAC] {PR1MA Magnagroove Records}\08 - Guia Maione - I Want You To Be My Baby.wav

Peak level 86.3 % Extraction speed 5.4 X Track quality 100.0 % Test CRC D362733A Copy CRC D362733A Accurately ripped (confidence 1) [B3582387] (AR v1) Copy OK

Track 9

Filename I:\Louis Prima with Gia Maione, Sam Butera and the Witnesses - King Of Clubs (2002) [FLAC] {PR1MA Magnagroove Records}\09 - Louis and Gia - Dinga Won't Ding.wav

Peak level 81.3 % Extraction speed 6.2 X Track quality 100.0 % Test CRC D667F3C4 Copy CRC D667F3C4 Accurately ripped (confidence 1) [A4E243F8] (AR v1) Copy OK

Track 10

Filename I:\Louis Prima with Gia Maione, Sam Butera and the Witnesses - King Of Clubs (2002) [FLAC] {PR1MA Magnagroove Records}\10 - Lou Sino - South Rampart Street Parade.wav

Peak level 84.1 % Extraction speed 6.3 X Track quality 100.0 % Test CRC 69A85514 Copy CRC 69A85514 Accurately ripped (confidence 1) [2631D9E5] (AR v1) Copy OK

Track 11

Filename I:\Louis Prima with Gia Maione, Sam Butera and the Witnesses - King Of Clubs (2002) [FLAC] {PR1MA Magnagroove Records}\11 - Louis Prima - Che La Luna.wav

Peak level 84.1 % Extraction speed 5.8 X Track quality 100.0 % Test CRC 76FB1A7C Copy CRC 76FB1A7C Accurately ripped (confidence 1) [69881294] (AR v1) Copy OK

All tracks accurately ripped

No errors occurred

End of status report

==== Log checksum 73A88CA2F127F4DC26DF74C1425C5E091E50EB2B8CFD3315D6ED187A47D49AE2 ====
 
REM GENRE LoungeREM DATE 2002REM DISCID 9006EF0BREM COMMENT "ExactAudioCopy v1.0b2"PERFORMER "Louis Prima with Guia Maione"TITLE "King Of Clubs"FILE "01 - Louis Prima - Them There Eyes.wav" WAVE TRACK 01 AUDIO TITLE "Them There Eyes" PERFORMER "Louis Prima" INDEX 01 00:00:00FILE "02 - Sam Butera - Blues In The Night.wav" WAVE TRACK 02 AUDIO TITLE "Blues In The Night" PERFORMER "Sam Butera" INDEX 01 00:00:00FILE "03 - Gia Maione - Goody Goody.wav" WAVE TRACK 03 AUDIO TITLE "Goody Goody" PERFORMER "Gia Maione" INDEX 01 00:00:00FILE "04 - Louis Prima - Buona Sera.wav" WAVE TRACK 04 AUDIO TITLE "Buona Sera" PERFORMER "Louis Prima" INDEX 01 00:00:00FILE "05 - Louis and Gia - Baby Won't You Please Come Home.wav" WAVE TRACK 05 AUDIO TITLE "Baby Won't You Please Come Home" PERFORMER "Louis and Gia" INDEX 01 00:00:00FILE "06 - Louis Prima - When I Wanted You.wav" WAVE TRACK 06 AUDIO TITLE "When I Wanted You" PERFORMER "Louis Prima" INDEX 01 00:00:00FILE "07 - Sam Butera - French Poodle.wav" WAVE TRACK 07 AUDIO TITLE "French Poodle" PERFORMER "Sam Butera" INDEX 01 00:00:00FILE "08 - Guia Maione - I Want You To Be My Baby.wav" WAVE TRACK 08 AUDIO TITLE "I Want You To Be My Baby" PERFORMER "Guia Maione" INDEX 01 00:00:00FILE "09 - Louis and Gia - Dinga Won't Ding.wav" WAVE TRACK 09 AUDIO TITLE "Dinga Won't Ding" PERFORMER "Louis and Gia" INDEX 01 00:00:00FILE "10 - Lou Sino - South Rampart Street Parade.wav" WAVE TRACK 10 AUDIO TITLE "South Rampart Street Parade" PERFORMER "Lou Sino" INDEX 01 00:00:00FILE "11 - Louis Prima - Che La Luna.wav" WAVE TRACK 11 AUDIO TITLE "Che La Luna" PERFORMER "Louis Prima" INDEX 01 00:00:00
 
AUDIOCHECKER v2.0 beta (build 457) - by Dester - opdester@freemail.hu~~~~~~~~~~~~~~~~~~~~~~~~~~~~~~~~~~-=== DO NOT EDIT THIS FILE! ===-

Path: ...\Louis Prima with Gia Maione, Sam Butera and the Witnesses - King Of Clubs (2002) [FLAC] {PR1MA Magnagroove Records}

01 -=- 01 - Louis Prima - Them There Eyes.wav -=- CDDA (100%)02 -=- 02 - Sam Butera - Blues In The Night.wav -=- CDDA (100%)03 -=- 03 - Gia Maione - Goody Goody.wav -=- CDDA (100%)04 -=- 04 - Louis Prima - Buona Sera.wav -=- CDDA (100%)05 -=- 05 - Louis and Gia - Baby Won't You Please Come Home.wav -=- CDDA (99%)06 -=- 06 - Louis Prima - When I Wanted You.wav -=- CDDA (100%)07 -=- 07 - Sam Butera - French Poodle.wav -=- CDDA (100%)08 -=- 08 - Guia Maione - I Want You To Be My Baby.wav -=- CDDA (100%)09 -=- 09 - Louis and Gia - Dinga Won't Ding.wav -=- CDDA (100%)10 -=- 10 - Lou Sino - South Rampart Street Parade.wav -=- CDDA (100%)11 -=- 11 - Louis Prima - Che La Luna.wav -=- CDDA (100%)

Summary 99,91% CDDA

49400804
Записи с выступлений в знаменитом ночном клубе Harrah's Club, Lake Tahoe в мае 1963 г. (За уточнение даты спасибо AlexBluesSoul.)

Трекер:  [ 05-Фев-2012 15:49 ]

  

Скачать .torrent

Размер .torrent файла 17 KB


Размер: 196 MB
Хэш (hash) релиза: 6e4e5ad3ceb6d19532e425cb69b0d77961d02175

Еще никто не оставлял запись к записи скачать торрент Louis Prima with Gia Maione, Sam Butera and the Witnesses - King Of Clubs - 2002, FLAC . Будь первым!

!Обратная связь