Скачать через торрент музыку Boyd Raeburn & His Orchestra бесплатно без регистрации torrent

Если у вас наблюдаются проблемы со скриншотами, переходом по ссылками, скачиванием торрентов - проблемы в блокировщике рекламы AdBlock. #хорошегоДня!


Статистика раздачи
Размер:  154 MB   |    Зарегистрирован:  5 лет 8 месяцев   |    .torrent скачан:  24 раза   |   
Раздают:  1  
   
Загрузка...
 
Автор Сообщение

Galfimbul

avatar Galfimbul


Boyd Raeburn & His Orchestra (1944-1945)

Жанр: Big Band / Swing
Год выпуска диска: 1994
Производитель диска: USA
Label: Circle (CCD-113)
Аудио кодек: FLAC
Тип рипа: tracks+.cue
Битрейт аудио: lossless
Продолжительность: 57:32
01. Raeburn's Theme
02. Duck Waddle
03. Who's To Answer?
04. Is You Is Or Is You Ain't? (Ma Baby)
05. Sequence
06. Come Out, Come Out, Wherever You Are
07. Solitude
08. Blue Moon
09. An Hour Never Passes
10. I'll Always Be In Love With You
11. Lonely Serenade
12. It Could Happen To You
13. Barefoot Boy With Cheek
14. Too Much In Love
15. Magic Is The Moonlight
16. I'll Walk Alone
17. Summertime
18. Bobby Socks
19. Interlude
20. Two Spoos In An Igloo
21. Raeburn'S Theme
EAC extraction logfile from 1. April 2009, 19:33 for CD
Boyd Raeburn / Boyd Raeburn And His Orchestra 1944-1945

Used drive : Optiarc DVD RW AD-7590A Adapter: 3 ID: 0
Read mode : Secure with NO C2, accurate stream, disable cache
Read offset correction : 48
Overread into Lead-In and Lead-Out : No

Used output format : C:\Program Files\Exact Audio Copy\Flac\flac.exe (User Defined Encoder)
192 kBit/s
Additional command line options : -8 -A tukey(0.25) -A gauss(0.1875) -b 4096 -V -T "artist=%a" -T "title=%t" -T "album=%g" -T "date=%y" -T "tracknumber=%n" -T "genre=%m" %s --sector-align

Other options :
Fill up missing offset samples with silence : Yes
Delete leading and trailing silent blocks : No
Native Win32 interface for Win NT & 2000

Track 1
Filename D:\flac\Boyd Raeburn - Boyd Raeburn And His Orchestra 1944-1945\01 - Raeburn'S Theme.wav

Pre-gap length 0:00:02.00

Peak level 80.3 %
Track quality 100.0 %
Test CRC B6EDFB4A
Copy CRC B6EDFB4A
Copy OK

Track 2
Filename D:\flac\Boyd Raeburn - Boyd Raeburn And His Orchestra 1944-1945\02 - Duck Waddle.wav

Pre-gap length 0:00:03.13

Peak level 95.7 %
Track quality 99.9 %
Test CRC DCD4E498
Copy CRC DCD4E498
Copy OK

Track 3
Filename D:\flac\Boyd Raeburn - Boyd Raeburn And His Orchestra 1944-1945\03 - Who'S To Answer-.wav

Pre-gap length 0:00:03.08

Peak level 79.6 %
Track quality 100.0 %
Test CRC 688267FF
Copy CRC 688267FF
Copy OK

Track 4
Filename D:\flac\Boyd Raeburn - Boyd Raeburn And His Orchestra 1944-1945\04 - Is You Is Or Is You Ain'T- (Ma Baby).wav

Pre-gap length 0:00:03.12

Peak level 85.3 %
Track quality 100.0 %
Test CRC 15A16A06
Copy CRC 15A16A06
Copy OK

Track 5
Filename D:\flac\Boyd Raeburn - Boyd Raeburn And His Orchestra 1944-1945\05 - Sequence.wav

Pre-gap length 0:00:03.13

Peak level 93.1 %
Track quality 99.9 %
Test CRC 03E718BA
Copy CRC 03E718BA
Copy OK

Track 6
Filename D:\flac\Boyd Raeburn - Boyd Raeburn And His Orchestra 1944-1945\06 - Come Out, Come Out, Wherever You Are.wav

Pre-gap length 0:00:03.09

Peak level 90.0 %
Track quality 100.0 %
Test CRC 6E25D7DD
Copy CRC 6E25D7DD
Copy OK

Track 7
Filename D:\flac\Boyd Raeburn - Boyd Raeburn And His Orchestra 1944-1945\07 - Solitude.wav

Pre-gap length 0:00:03.11

Peak level 79.4 %
Track quality 100.0 %
Test CRC 1E2DA45B
Copy CRC 1E2DA45B
Copy OK

Track 8
Filename D:\flac\Boyd Raeburn - Boyd Raeburn And His Orchestra 1944-1945\08 - Blue Moon.wav

Pre-gap length 0:00:03.09

Peak level 96.1 %
Track quality 100.0 %
Test CRC F4F814D8
Copy CRC F4F814D8
Copy OK

Track 9
Filename D:\flac\Boyd Raeburn - Boyd Raeburn And His Orchestra 1944-1945\09 - An Hour Never Passes.wav

Pre-gap length 0:00:03.12

Peak level 80.9 %
Track quality 100.0 %
Test CRC A44F915B
Copy CRC A44F915B
Copy OK

Track 10
Filename D:\flac\Boyd Raeburn - Boyd Raeburn And His Orchestra 1944-1945\10 - I'Ll Always Be In Love With You.wav

Pre-gap length 0:00:03.09

Peak level 93.3 %
Track quality 100.0 %
Test CRC 7BE5AECD
Copy CRC 7BE5AECD
Copy OK

Track 11
Filename D:\flac\Boyd Raeburn - Boyd Raeburn And His Orchestra 1944-1945\11 - Lonely Serenade.wav

Pre-gap length 0:00:03.08

Peak level 96.5 %
Track quality 100.0 %
Test CRC F99ACAED
Copy CRC F99ACAED
Copy OK

Track 12
Filename D:\flac\Boyd Raeburn - Boyd Raeburn And His Orchestra 1944-1945\12 - It Could Happen To You.wav

Pre-gap length 0:00:03.14

Peak level 76.4 %
Track quality 99.9 %
Test CRC B92C0AE8
Copy CRC B92C0AE8
Copy OK

Track 13
Filename D:\flac\Boyd Raeburn - Boyd Raeburn And His Orchestra 1944-1945\13 - Barefoot Boy With Cheek.wav

Pre-gap length 0:00:03.10

Peak level 97.2 %
Track quality 100.0 %
Test CRC 4DB3657B
Copy CRC 4DB3657B
Copy OK

Track 14
Filename D:\flac\Boyd Raeburn - Boyd Raeburn And His Orchestra 1944-1945\14 - Too Much In Love.wav

Pre-gap length 0:00:03.11

Peak level 77.3 %
Track quality 100.0 %
Test CRC 0D29FBCC
Copy CRC 0D29FBCC
Copy OK

Track 15
Filename D:\flac\Boyd Raeburn - Boyd Raeburn And His Orchestra 1944-1945\15 - Magic Is Moonlight.wav

Pre-gap length 0:00:03.10

Peak level 83.9 %
Track quality 99.9 %
Test CRC 37E987DD
Copy CRC 37E987DD
Copy OK

Track 16
Filename D:\flac\Boyd Raeburn - Boyd Raeburn And His Orchestra 1944-1945\16 - I'Ll Walk Alone.wav

Pre-gap length 0:00:03.09

Peak level 75.2 %
Track quality 100.0 %
Test CRC 96F75BEC
Copy CRC 96F75BEC
Copy OK

Track 17
Filename D:\flac\Boyd Raeburn - Boyd Raeburn And His Orchestra 1944-1945\17 - Summertime.wav

Pre-gap length 0:00:03.12

Peak level 96.7 %
Track quality 100.0 %
Test CRC E4BEDF6F
Copy CRC E4BEDF6F
Copy OK

Track 18
Filename D:\flac\Boyd Raeburn - Boyd Raeburn And His Orchestra 1944-1945\18 - Bobby Socks.wav

Pre-gap length 0:00:03.09

Peak level 90.1 %
Track quality 100.0 %
Test CRC DEFC566E
Copy CRC DEFC566E
Copy OK

Track 19
Filename D:\flac\Boyd Raeburn - Boyd Raeburn And His Orchestra 1944-1945\19 - Interlude.wav

Pre-gap length 0:00:03.09

Peak level 97.0 %
Track quality 100.0 %
Test CRC 9F0AD288
Copy CRC 9F0AD288
Copy OK

Track 20
Filename D:\flac\Boyd Raeburn - Boyd Raeburn And His Orchestra 1944-1945\20 - Two Spoos In An Igloo.wav

Pre-gap length 0:00:03.10

Peak level 94.1 %
Track quality 100.0 %
Test CRC 5306ED74
Copy CRC 5306ED74
Copy OK

Track 21
Filename D:\flac\Boyd Raeburn - Boyd Raeburn And His Orchestra 1944-1945\21 - Raeburn'S Theme.wav

Pre-gap length 0:00:03.09

Peak level 69.4 %
Track quality 100.0 %
Test CRC 81CAF9C9
Copy CRC 81CAF9C9
Copy OK

No errors occured

End of status report
auCDtect: CD records authenticity detector, version 0.8.2
Copyright (c) 2004 Oleg Berngardt. All rights reserved.
Copyright (c) 2004 Alexander Djourik. All rights reserved.
------------------------------------------------------------
Processing file: [01 - Raeburn'S Theme.wav]
Data analysis: [100%]
------------------------------------------------------------
This track looks like CDDA with probability 100%

------------------------------------------------------------
Processing file: [02 - Duck Waddle.wav]
Data analysis: [100%]
------------------------------------------------------------
This track looks like CDDA with probability 100%

------------------------------------------------------------
Processing file: [03 - Who'S To Answer-.wav]
Data analysis: [100%]
------------------------------------------------------------
This track looks like CDDA with probability 99%

------------------------------------------------------------
Processing file: [04 - Is You Is Or Is You Ain'T- (Ma Baby).wav]
Data analysis: [100%]
------------------------------------------------------------
This track looks like CDDA with probability 100%

------------------------------------------------------------
Processing file: [05 - Sequence.wav]
Data analysis: [100%]
------------------------------------------------------------
This track looks like CDDA with probability 100%

------------------------------------------------------------
Processing file: [06 - Come Out, Come Out, Wherever You Are.wav]
Data analysis: [100%]
------------------------------------------------------------
This track looks like CDDA with probability 100%

------------------------------------------------------------
Processing file: [07 - Solitude.wav]
Data analysis: [100%]
------------------------------------------------------------
This track looks like CDDA with probability 100%

------------------------------------------------------------
Processing file: [08 - Blue Moon.wav]
Data analysis: [100%]
------------------------------------------------------------
This track looks like CDDA with probability 100%

------------------------------------------------------------
Processing file: [09 - An Hour Never Passes.wav]
Data analysis: [100%]
------------------------------------------------------------
This track looks like CDDA with probability 100%

------------------------------------------------------------
Processing file: [10 - I'Ll Always Be In Love With You.wav]
Data analysis: [100%]
------------------------------------------------------------
This track looks like CDDA with probability 100%

------------------------------------------------------------
Processing file: [11 - Lonely Serenade.wav]
Data analysis: [100%]
------------------------------------------------------------
This track looks like CDDA with probability 100%

------------------------------------------------------------
Processing file: [12 - It Could Happen To You.wav]
Data analysis: [100%]
------------------------------------------------------------
This track looks like CDDA with probability 100%

------------------------------------------------------------
Processing file: [13 - Barefoot Boy With Cheek.wav]
Data analysis: [100%]
------------------------------------------------------------
This track looks like CDDA with probability 100%

------------------------------------------------------------
Processing file: [14 - Too Much In Love.wav]
Data analysis: [100%]
------------------------------------------------------------
This track looks like CDDA with probability 100%

------------------------------------------------------------
Processing file: [15 - Magic Is Moonlight.wav]
Data analysis: [100%]
------------------------------------------------------------
This track looks like CDDA with probability 100%

------------------------------------------------------------
Processing file: [16 - I'Ll Walk Alone.wav]
Data analysis: [100%]
------------------------------------------------------------
This track looks like CDDA with probability 100%

------------------------------------------------------------
Processing file: [17 - Summertime.wav]
Data analysis: [100%]
------------------------------------------------------------
This track looks like CDDA with probability 100%

------------------------------------------------------------
Processing file: [18 - Bobby Socks.wav]
Data analysis: [100%]
------------------------------------------------------------
This track looks like CDDA with probability 100%

------------------------------------------------------------
Processing file: [19 - Interlude.wav]
Data analysis: [100%]
------------------------------------------------------------
This track looks like CDDA with probability 100%

------------------------------------------------------------
Processing file: [20 - Two Spoos In An Igloo.wav]
Data analysis: [100%]
------------------------------------------------------------
This track looks like CDDA with probability 100%

------------------------------------------------------------
Processing file: [21 - Raeburn'S Theme.wav]
Data analysis: [100%]
------------------------------------------------------------
This track looks like CDDA with probability 100%


Трекер:  [ 05-Фев-2012 15:48 ]

  

Скачать .torrent

Размер .torrent файла 28 KB


Размер: 154 MB
Хэш (hash) релиза: a27802fc07be4150bf1ce09614f99a241de72bd5

Еще никто не оставлял запись к записи скачать торрент Boyd Raeburn & His Orchestra . Будь первым!

!Обратная связь