Скачать через торрент музыку Artie Shaw & His Orchestra - The Chronological бесплатно без регистрации torrent

Если у вас наблюдаются проблемы со скриншотами, переходом по ссылками, скачиванием торрентов - проблемы в блокировщике рекламы AdBlock. #хорошегоДня!


Статистика раздачи
Размер:  328 MB   |    Зарегистрирован:  5 лет 8 месяцев   |    .torrent скачан:  32 раза   |   
Раздают:  1  
   
Загрузка...
 
Автор Сообщение

Galfimbul

avatar Galfimbul


Artie Shaw & His Orchestra - The Chronological (1945)

Жанр: Big Band / Swing
Год выпуска диска: 2002
Производитель диска: France
Label: Classics (1277)
Аудио кодек: FLAC
Тип рипа: tracks+.cue
Битрейт аудио: lossless
Продолжительность: 71:18
01. A Foggy Day
02. These Foolish Things
03. Lucky Number
04. You Go To My Head
05. The Man I Love
06. I Could Write A Book
07. Thrill Of A Lifetime
08. Kasbah
09. Lament
10. Lucky Number
11. Love Walked In
12. Soon
13. Keepin' Myself For You
14. No One But You
15. Natch
16. That's For Me
17. They Can't Take That Away From Me
18. They Can't Take That Away From Me
19. Our Love Is Here To Stay
20. I Was Doin' Alright
21. Someone To Watch Over Me
22. Things Are Looking Up
23. The Maid With The Flaccid Air
Exact Audio Copy V0.99 prebeta 5 from 4. May 2009

EAC extraction logfile from 15. July 2009, 19:55

Artie Shaw / 1945

Used drive : ASUS DRW-1814BLT Adapter: 4 ID: 1

Read mode : Secure
Utilize accurate stream : Yes
Defeat audio cache : No
Make use of C2 pointers : Yes

Read offset correction : 6
Overread into Lead-In and Lead-Out : No
Fill up missing offset samples with silence : Yes
Delete leading and trailing silent blocks : No
Null samples used in CRC calculations : Yes
Used interface : Installed external ASPI interface
Gap handling : Appended to previous track

Used output format : User Defined Encoder
Selected bitrate : 128 kBit/s
Quality : High
Add ID3 tag : No
Command line compressor : C:\Program Files\FLAC\flac.exe
Additional command line options : -V -8 -T "artist=%a" -T "title=%t" -T "album=%g" -T "date=%y" -T "tracknumber=%n" -T "genre=%m" %s

TOC of the extracted CD

Track | Start | Length | Start sector | End sector
---------------------------------------------------------
1 | 0:00.33 | 3:14.45 | 33 | 14627
2 | 3:15.03 | 3:14.29 | 14628 | 29206
3 | 6:29.32 | 2:51.20 | 29207 | 42051
4 | 9:20.52 | 3:12.64 | 42052 | 56515
5 | 12:33.41 | 3:11.21 | 56516 | 70861
6 | 15:44.62 | 3:07.32 | 70862 | 84918
7 | 18:52.19 | 3:23.34 | 84919 | 100177
8 | 22:15.53 | 3:04.30 | 100178 | 114007
9 | 25:20.08 | 3:22.03 | 114008 | 129160
10 | 28:42.11 | 2:43.63 | 129161 | 141448
11 | 31:25.74 | 2:54.15 | 141449 | 154513
12 | 34:20.14 | 3:04.49 | 154514 | 168362
13 | 37:24.63 | 3:09.65 | 168363 | 182602
14 | 40:34.53 | 3:04.09 | 182603 | 196411
15 | 43:38.62 | 3:15.72 | 196412 | 211108
16 | 46:54.59 | 3:12.00 | 211109 | 225508
17 | 50:06.59 | 2:47.01 | 225509 | 238034
18 | 52:53.60 | 2:43.52 | 238035 | 250311
19 | 55:37.37 | 2:54.49 | 250312 | 263410
20 | 58:32.11 | 3:06.51 | 263411 | 277411
21 | 61:38.62 | 3:03.74 | 277412 | 291210
22 | 64:42.61 | 3:08.38 | 291211 | 305348
23 | 67:51.24 | 3:49.40 | 305349 | 322563

Track 1

Filename C:\AS1945\01 - A Foggy Day.wav

Pre-gap length 0:00:02.44

Peak level 100.0 %
Track quality 100.0 %
Test CRC 9FC308D3
Copy CRC 9FC308D3
Copy OK

Track 2

Filename C:\AS1945\02 - These Foolish Things.wav

Pre-gap length 0:00:02.32

Peak level 100.0 %
Track quality 100.0 %
Test CRC 0AC0B545
Copy CRC 0AC0B545
Copy OK

Track 3

Filename C:\AS1945\03 - Lucky Number.wav

Pre-gap length 0:00:02.32

Peak level 88.0 %
Track quality 100.0 %
Test CRC D432C67C
Copy CRC D432C67C
Copy OK

Track 4

Filename C:\AS1945\04 - You Go To My Head.wav

Pre-gap length 0:00:02.32

Peak level 100.0 %
Track quality 99.8 %
Test CRC 0AA8BD6C
Copy CRC 0AA8BD6C
Copy OK

Track 5

Filename C:\AS1945\05 - The Man I Love.wav

Pre-gap length 0:00:02.32

Peak level 73.8 %
Track quality 100.0 %
Test CRC B598C588
Copy CRC B598C588
Copy OK

Track 6

Filename C:\AS1945\06 - I Could Write A Book.wav

Pre-gap length 0:00:02.32

Peak level 85.8 %
Track quality 99.8 %
Test CRC 7D799337
Copy CRC 7D799337
Copy OK

Track 7

Filename C:\AS1945\07 - Thrill Of A Lifetime.wav

Pre-gap length 0:00:02.32

Peak level 100.0 %
Track quality 100.0 %
Test CRC 3F2F6F6C
Copy CRC 3F2F6F6C
Copy OK

Track 8

Filename C:\AS1945\08 - Kasbah.wav

Pre-gap length 0:00:02.32

Peak level 77.8 %
Track quality 100.0 %
Test CRC 09B2A784
Copy CRC 09B2A784
Copy OK

Track 9

Filename C:\AS1945\09 - Lament.wav

Pre-gap length 0:00:02.30

Peak level 90.0 %
Track quality 100.0 %
Test CRC 2D1DE886
Copy CRC 2D1DE886
Copy OK

Track 10

Filename C:\AS1945\10 - Lucky Number.wav

Pre-gap length 0:00:02.30

Peak level 94.1 %
Track quality 99.8 %
Test CRC 108750ED
Copy CRC 108750ED
Copy OK

Track 11

Filename C:\AS1945\11 - Love Walked In.wav

Pre-gap length 0:00:02.32

Peak level 94.2 %
Track quality 100.0 %
Test CRC E0A03A3D
Copy CRC E0A03A3D
Copy OK

Track 12

Filename C:\AS1945\12 - Soon.wav

Pre-gap length 0:00:02.30

Peak level 100.0 %
Track quality 100.0 %
Test CRC 03748623
Copy CRC 03748623
Copy OK

Track 13

Filename C:\AS1945\13 - Keepin' Myself For You.wav

Pre-gap length 0:00:02.30

Peak level 100.0 %
Track quality 100.0 %
Test CRC 8B8C0546
Copy CRC 8B8C0546
Copy OK

Track 14

Filename C:\AS1945\14 - No One But You.wav

Pre-gap length 0:00:02.32

Peak level 100.0 %
Track quality 100.0 %
Test CRC 41811890
Copy CRC 41811890
Copy OK

Track 15

Filename C:\AS1945\15 - Natch.wav

Pre-gap length 0:00:02.30

Peak level 93.4 %
Track quality 100.0 %
Test CRC B98011C6
Copy CRC B98011C6
Copy OK

Track 16

Filename C:\AS1945\16 - That's For Me.wav

Pre-gap length 0:00:02.30

Peak level 93.5 %
Track quality 100.0 %
Test CRC 555564B3
Copy CRC 555564B3
Copy OK

Track 17

Filename C:\AS1945\17 - They Can't Take That Away From Me.wav

Pre-gap length 0:00:02.32

Peak level 95.2 %
Track quality 99.8 %
Test CRC 8D910EEF
Copy CRC 8D910EEF
Copy OK

Track 18

Filename C:\AS1945\18 - They Can't Take That Away From Me.wav

Pre-gap length 0:00:02.32

Peak level 98.1 %
Track quality 100.0 %
Test CRC 1D64D638
Copy CRC 1D64D638
Copy OK

Track 19

Filename C:\AS1945\19 - Our Love Is Here To Stay.wav

Pre-gap length 0:00:02.32

Peak level 99.8 %
Track quality 99.8 %
Test CRC AA03ED33
Copy CRC AA03ED33
Copy OK

Track 20

Filename C:\AS1945\20 - I Was Doin' Alright.wav

Pre-gap length 0:00:02.30

Peak level 91.6 %
Track quality 100.0 %
Test CRC A2A418AA
Copy CRC A2A418AA
Copy OK

Track 21

Filename C:\AS1945\21 - Someone To Watch Over Me.wav

Pre-gap length 0:00:02.30

Peak level 84.2 %
Track quality 100.0 %
Test CRC 84B2C961
Copy CRC 84B2C961
Copy OK

Track 22

Filename C:\AS1945\22 - Things Are Looking Up.wav

Pre-gap length 0:00:02.32

Peak level 82.6 %
Track quality 100.0 %
Test CRC 33724F14
Copy CRC 33724F14
Copy OK

Track 23

Filename C:\AS1945\23 - The Maid With The Flaccid Air.wav

Pre-gap length 0:00:02.32

Peak level 98.6 %
Track quality 100.0 %
Test CRC FC9F6120
Copy CRC FC9F6120
Copy OK

No errors occurred

End of status report
 
-----------------------

DON'T MODIFY THIS FILE

-----------------------

PERFORMER: auCDtect Task Manager, ver. 1.0.0 Stable build 1.0.0.0Copyright (c) 2008, 2009 y-soft. All rights reservedhttp://y-soft.110mb.com

ANALYZER: auCDtect: CD records authenticity detector, version 0.8.2Copyright (c) 2004 Oleg Berngardt. All rights reserved.Copyright (c) 2004 Alexander Djourik. All rights reserved.

FILE: 02 - These Foolish Things.flac Size: 14515443 Hash: 4B2AA8182E4306B0CDA18CA1D6DB0FA9 Accuracy: -m8 Conclusion: CDDA 100% Signature: F70CAF0F4D1FC2F30D799D090F9F56BC4A83D763FILE: 01 - A Foggy Day.flac Size: 15735774 Hash: 2A186AE385BD569A3425DBCC233CD569 Accuracy: -m8 Conclusion: CDDA 85% Signature: 1C92E95F0970B563707FFF3214A6CA44F5B65EBDFILE: 03 - Lucky Number.flac Size: 14033243 Hash: C1E40612652A5643C7A4EAF1D0F37FDC Accuracy: -m8 Conclusion: CDDA 100% Signature: D43EF3430BA2F4EC458DDF8446EB3BBE3CFC969AFILE: 04 - You Go To My Head.flac Size: 14379331 Hash: 1958289C94E16C29D416B572FB619B67 Accuracy: -m8 Conclusion: CDDA 100% Signature: 9BD3B0EEEB1153213B1B96018C00523ADBFA47EDFILE: 05 - The Man I Love.flac Size: 15174921 Hash: 40F642E6AF2EB671E7F7110B1C25B45A Accuracy: -m8 Conclusion: CDDA 100% Signature: 6DB47D80502F6E3CF6E6A98718FABCEB070426F3FILE: 06 - I Could Write A Book.flac Size: 15210661 Hash: E7999233E1CC21D13EF38E5D36A5AE13 Accuracy: -m8 Conclusion: CDDA 100% Signature: CAFE057A1409DA309E56A5128DD99C198F69D03FFILE: 08 - Kasbah.flac Size: 14451292 Hash: 93B843439AA77729F69173E490DF61FB Accuracy: -m8 Conclusion: CDDA 99% Signature: 0DD960509588072FDDD9CF3791FF8B81F6AE3624FILE: 07 - Thrill Of A Lifetime.flac Size: 17080295 Hash: 04CFDEA51FF504ECD8CF2EFE50EB43EC Accuracy: -m8 Conclusion: CDDA 100% Signature: 526CE284689EAB3F6DE7A127EFCB609FEF0FF851FILE: 10 - Lucky Number.flac Size: 13880586 Hash: 0B8A0E4FD4FDC583CF30471909189E04 Accuracy: -m8 Conclusion: CDDA 99% Signature: 7F67A46A41B0A55AB21CB0BA7A2845B6B5B69C22FILE: 09 - Lament.flac Size: 15958645 Hash: 4D9A0AC84DDB644A73482D9427F01AAC Accuracy: -m8 Conclusion: CDDA 100% Signature: 2CE52CC253BAFBDDE0BAD43D6B236E30F4E80263FILE: 11 - Love Walked In.flac Size: 14186515 Hash: 4213A3F7711A7C59FBBDBBD8A6EC029C Accuracy: -m8 Conclusion: CDDA 92% Signature: E25F81C82BAD00BFF5E1F889A47A54B9A044F37BFILE: 12 - Soon.flac Size: 15034391 Hash: 8BC203F6B6242256856946CB719002F9 Accuracy: -m8 Conclusion: CDDA 100% Signature: 8C857F3BCBF7D2A7D3FF8E31C572BC1BAB8AE50BFILE: 13 - Keepin' Myself For You.flac Size: 14871433 Hash: 9A81A0ED318AA32FD0FFFEB397AE2B6F Accuracy: -m8 Conclusion: CDDA 100% Signature: 907DB7E50D34E92B3311DE8B061EE6D00D0498A2FILE: 14 - No One But You.flac Size: 15605681 Hash: 7C813B31CEBEFD209671A28FE5120E14 Accuracy: -m8 Conclusion: CDDA 100% Signature: 20B2B7560ECD1642F4B1951B894326952EFBEC17FILE: 15 - Natch.flac Size: 16482531 Hash: D8C2D4A8E5BE3BB048B7B903A0248855 Accuracy: -m8 Conclusion: CDDA 100% Signature: 2474B8CDAEB1C2F263B68D70027602C24A9A2B7FFILE: 16 - That's For Me.flac Size: 14660345 Hash: 70D4285BFD67A207D9642FFADBFF7384 Accuracy: -m8 Conclusion: CDDA 100% Signature: EE953A97AFE098F577CC0BC31D26BF5D3BC658E6FILE: 17 - They Can't Take That Away From Me.flac Size: 13801387 Hash: AAF332FBBFE92123675FDE89BC285058 Accuracy: -m8 Conclusion: CDDA 99% Signature: B6E6837DBCE7CA9CC213070F61977EF3BBB50CA4FILE: 18 - They Can't Take That Away From Me.flac Size: 12823202 Hash: 45F6F45C8866F15D6620754661FE0EC0 Accuracy: -m8 Conclusion: CDDA 100% Signature: 4C7EED38299507155A2EF89C24EB1411F08D759BFILE: 19 - Our Love Is Here To Stay.flac Size: 13574932 Hash: 4D660D850FC03952D5BC2F884F34725E Accuracy: -m8 Conclusion: CDDA 100% Signature: A5D86F0920716A60E6B594A48895EFFDC80D6D43FILE: 20 - I Was Doin' Alright.flac Size: 14516326 Hash: 1EF22A478BA5E5F7B6D68A910DEF1575 Accuracy: -m8 Conclusion: CDDA 100% Signature: D58F9D63769F3989E91869E67CB6AF0616DA9DDDFILE: 21 - Someone To Watch Over Me.flac Size: 14630672 Hash: A9FC34573063A130DAAC6165DB3EF19A Accuracy: -m8 Conclusion: CDDA 100% Signature: 4365DA12EF20EF2D42DECAA2617B2FC6E05346D3FILE: 22 - Things Are Looking Up.flac Size: 14459011 Hash: 1A169548A138D955F31739DE67B98259 Accuracy: -m8 Conclusion: CDDA 100% Signature: CD9BDC1DB35CD30BE0818F3504C9102FF40380DEFILE: 23 - The Maid With The Flaccid Air.flac Size: 17992357 Hash: CDA7F646F94ECB5B6D41D6BA0C6287B1 Accuracy: -m8 Conclusion: CDDA 100% Signature: B4372114939D7DAD59918DE227E95B08EE71C9F1


Трекер:  [ 05-Фев-2012 15:48 ]

  

Скачать .torrent

Размер .torrent файла 55 KB


Размер: 328 MB
Хэш (hash) релиза: fa8c3f6430826d999ba9cd56633d70a8cea9010a

Еще никто не оставлял запись к записи скачать торрент Artie Shaw & His Orchestra - The Chronological . Будь первым!

!Обратная связь