Скачать через торрент музыку Stephane Grappelli — Verve Jazz Masters 11 — 1994, FLAC бесплатно без регистрации torrent

Если у вас наблюдаются проблемы со скриншотами, переходом по ссылками, скачиванием торрентов - проблемы в блокировщике рекламы AdBlock. #хорошегоДня!


Статистика раздачи
Размер:  326 MB   |    Зарегистрирован:  5 лет 8 месяцев   |    .torrent скачан:  27 раз   |   
Раздают:  1  
   
Загрузка...
 
Автор Сообщение

Galfimbul

avatar Galfimbul


Stephane Grappelli — Verve Jazz Masters 11

Жанр: Swing
Год издания диска: 1994
Лейбл: Verve
Аудио кодек: FLAC (*.flac)
Тип рипа: tracks+.cue
Битрейт аудио: lossless
Продолжительность: 60:37
Источник (релизер): вата (smacito)
Сканов нет

Треклист:
01. Pennies From Heaven (3:51)
02. Solitude (4:13)
03. Ain't Misbehavin' (3:18)
04. Star Eyes (3:13)
05. Insensiblement (4:56)
06. The Folks Who Live On The Hill (5:37)
07. Nuages (5:32)
08. Manoir De Mes Reves • Daphne (4:23)
09. Are You In The Mood (3:29)
10. Tears (6:09)
11. Djangology (3:25)
12. Shine (3:36)
13. A Nightingale Sang In Berkeley Square (3:49)
14. Someone To Watch Over Me • I Got Rhythm (5:07)
 
Exact Audio Copy V0.99 prebeta 5 from 4. May 2009

EAC extraction logfile from 27. September 2010, 17:24

Stйphane Grappelli / Verve Jazz Masters 11

Used drive : HL-DT-STDVDRAM GT30N Adapter: 0 ID: 1

Read mode : SecureUtilize accurate stream : YesDefeat audio cache : YesMake use of C2 pointers : No

Read offset correction : 103Overread into Lead-In and Lead-Out : NoFill up missing offset samples with silence : YesDelete leading and trailing silent blocks : NoNull samples used in CRC calculations : YesUsed interface : Native Win32 interface for Win NT & 2000Gap handling : Appended to previous track

Used output format : User Defined EncoderSelected bitrate : 1024 kBit/sQuality : HighAdd ID3 tag : NoCommand line compressor : C:\Program Files (x86)\Exact Audio Copy\FLAC\FLAC.EXEAdditional command line options : -8 -T "artist=%a" -T "title=%t" -T "album=%g" -T "date=%y" -T "tracknumber=%n" -T "genre=%m" %s

TOC of the extracted CD

Track | Start | Length | Start sector | End sector --------------------------------------------------------- 1 | 0:00.33 | 3:51.00 | 33 | 17357 2 | 3:51.33 | 4:13.12 | 17358 | 36344 3 | 8:04.45 | 3:18.00 | 36345 | 51194 4 | 11:22.45 | 3:12.45 | 51195 | 65639 5 | 14:35.15 | 4:55.43 | 65640 | 87807 6 | 19:30.58 | 5:36.50 | 87808 | 113057 7 | 25:07.33 | 5:32.20 | 113058 | 137977 8 | 30:39.53 | 4:23.12 | 137978 | 157714 9 | 35:02.65 | 3:28.73 | 157715 | 173387 10 | 38:31.63 | 6:08.67 | 173388 | 201054 11 | 44:40.55 | 3:25.10 | 201055 | 216439 12 | 48:05.65 | 3:35.58 | 216440 | 232622 13 | 51:41.48 | 3:48.57 | 232623 | 249779 14 | 55:30.30 | 5:06.68 | 249780 | 272797

Track 1

Filename D:\Flac 100% Project\Jazz Masters 11\01. Stйphane Grappelli - Pennies from Heaven.wav

Pre-gap length 0:00:02.44

Peak level 98.4 % Track quality 100.0 % Test CRC 1AD01434 Copy CRC 1AD01434 Accurately ripped (confidence 4) [759B1F6D] Copy OK

Track 2

Filename D:\Flac 100% Project\Jazz Masters 11\02. Stйphane Grappelli - Solitude.wav

Pre-gap length 0:00:01.33

Peak level 98.4 % Track quality 100.0 % Test CRC 6E052693 Copy CRC 6E052693 Accurately ripped (confidence 4) [A60BD77B] Copy OK

Track 3

Filename D:\Flac 100% Project\Jazz Masters 11\03. Stйphane Grappelli - Ain't Misbehavin'.wav

Pre-gap length 0:00:01.33

Peak level 98.4 % Track quality 100.0 % Test CRC A617CF32 Copy CRC A617CF32 Accurately ripped (confidence 4) [480575DD] Copy OK

Track 4

Filename D:\Flac 100% Project\Jazz Masters 11\04. Stйphane Grappelli - Star Eyes.wav

Pre-gap length 0:00:01.00

Peak level 98.4 % Track quality 99.9 % Test CRC 467705C4 Copy CRC 467705C4 Accurately ripped (confidence 4) [474BAD13] Copy OK

Track 5

Filename D:\Flac 100% Project\Jazz Masters 11\05. Stйphane Grappelli - Insensiblement.wav

Pre-gap length 0:00:01.33

Peak level 98.4 % Track quality 100.0 % Test CRC B3201191 Copy CRC B3201191 Accurately ripped (confidence 4) [5DAF0EA4] Copy OK

Track 6

Filename D:\Flac 100% Project\Jazz Masters 11\06. Stйphane Grappelli - The Folks Who Live on the Hill.wav

Pre-gap length 0:00:01.33

Peak level 98.4 % Track quality 100.0 % Test CRC 2C84BCDF Copy CRC 2C84BCDF Accurately ripped (confidence 4) [AB4ADBD5] Copy OK

Track 7

Filename D:\Flac 100% Project\Jazz Masters 11\07. Stйphane Grappelli - Nuages.wav

Pre-gap length 0:00:01.33

Peak level 98.4 % Track quality 100.0 % Test CRC 320E38E4 Copy CRC 320E38E4 Accurately ripped (confidence 4) [FF334FA2] Copy OK

Track 8

Filename D:\Flac 100% Project\Jazz Masters 11\08. Stйphane Grappelli - Manoir de Mes Rкves , Daphne.wav

Pre-gap length 0:00:01.33

Peak level 98.4 % Track quality 100.0 % Test CRC 2DE06F87 Copy CRC 2DE06F87 Accurately ripped (confidence 4) [10F15C5D] Copy OK

Track 9

Filename D:\Flac 100% Project\Jazz Masters 11\09. Stйphane Grappelli - Are You in the Mood .wav

Pre-gap length 0:00:01.33

Peak level 95.9 % Track quality 100.0 % Test CRC 65924CAE Copy CRC 65924CAE Accurately ripped (confidence 4) [F36E62DA] Copy OK

Track 10

Filename D:\Flac 100% Project\Jazz Masters 11\10. Stйphane Grappelli - Tears.wav

Pre-gap length 0:00:00.33

Peak level 98.4 % Track quality 100.0 % Test CRC D2BDFD9C Copy CRC D2BDFD9C Accurately ripped (confidence 4) [68B5BA7C] Copy OK

Track 11

Filename D:\Flac 100% Project\Jazz Masters 11\11. Stйphane Grappelli - Djangology.wav

Pre-gap length 0:00:01.33

Peak level 92.2 % Track quality 100.0 % Test CRC 0E62DD00 Copy CRC 0E62DD00 Accurately ripped (confidence 4) [046E256B] Copy OK

Track 12

Filename D:\Flac 100% Project\Jazz Masters 11\12. Stйphane Grappelli - S-H-I-N-E.wav

Pre-gap length 0:00:01.33

Peak level 98.4 % Track quality 100.0 % Test CRC 7AA8B29D Copy CRC 7AA8B29D Accurately ripped (confidence 4) [6C6752B3] Copy OK

Track 13

Filename D:\Flac 100% Project\Jazz Masters 11\13. Stйphane Grappelli - A Nightingale Sang in Berkeley Square.wav

Pre-gap length 0:00:01.33

Peak level 91.3 % Track quality 100.0 % Test CRC 441CC508 Copy CRC 441CC508 Accurately ripped (confidence 3) [78684CE0] Copy OK

Track 14

Filename D:\Flac 100% Project\Jazz Masters 11\14. Stйphane Grappelli - Someone to Watch over Me , I Got Rhythm.wav

Pre-gap length 0:00:00.33

Peak level 98.4 % Track quality 100.0 % Test CRC F36B30F8 Copy CRC F36B30F8 Accurately ripped (confidence 3) [C52E69DF] Copy OK

All tracks accurately ripped

No errors occurred

End of status report
 
REM GENRE JazzREM DATE 1993REM DISCID B90E350EREM COMMENT "ExactAudioCopy v0.99pb5"PERFORMER "Stephane Grappelli"TITLE "Verve Jazz Masters 11"FILE "01. Pennies From Heaven.wav" WAVE TRACK 01 AUDIO TITLE "Pennies From Heaven" PERFORMER "Stephane Grappelli" PREGAP 00:00:33 INDEX 01 00:00:00 TRACK 02 AUDIO TITLE "Solitude" PERFORMER "Stephane Grappelli" INDEX 00 03:49:50FILE "02. Solitude.wav" WAVE INDEX 01 00:00:00 TRACK 03 AUDIO TITLE "Ain't Misbehavin'" PERFORMER "Stephane Grappelli" INDEX 00 04:11:62FILE "03. Ain't Misbehavin'.wav" WAVE INDEX 01 00:00:00 TRACK 04 AUDIO TITLE "Star Eyes" PERFORMER "Stephane Grappelli" INDEX 00 03:17:00FILE "04. Star Eyes.wav" WAVE INDEX 01 00:00:00 TRACK 05 AUDIO TITLE "Insensiblement" PERFORMER "Stephane Grappelli" INDEX 00 03:11:20FILE "05. Insensiblement.wav" WAVE INDEX 01 00:00:00 TRACK 06 AUDIO TITLE "The Folks Who Live On The Hill" PERFORMER "Stephane Grappelli" INDEX 00 04:54:18FILE "06. The Folks Who Live On The Hill.wav" WAVE INDEX 01 00:00:00 TRACK 07 AUDIO TITLE "Nuages" PERFORMER "Stephane Grappelli" INDEX 00 05:35:25FILE "07. Nuages.wav" WAVE INDEX 01 00:00:00 TRACK 08 AUDIO TITLE "Manoir De Mes Reves • Daphne" PERFORMER "Stephane Grappelli" INDEX 00 05:30:70FILE "08. Manoir De Mes Reves • Daphne.wav" WAVE INDEX 01 00:00:00 TRACK 09 AUDIO TITLE "Are You In The Mood" PERFORMER "Stephane Grappelli" INDEX 00 04:21:62FILE "09. Are You In The Mood.wav" WAVE INDEX 01 00:00:00 TRACK 10 AUDIO TITLE "Tears" PERFORMER "Stephane Grappelli" INDEX 00 03:28:48FILE "10. Tears.wav" WAVE INDEX 01 00:00:00 TRACK 11 AUDIO TITLE "Djangology" PERFORMER "Stephane Grappelli" INDEX 00 06:07:42FILE "11. Djangology.wav" WAVE INDEX 01 00:00:00 TRACK 12 AUDIO TITLE "Shine" PERFORMER "Stephane Grappelli" INDEX 00 03:23:60FILE "12. Shine.wav" WAVE INDEX 01 00:00:00 TRACK 13 AUDIO TITLE "A Nightingale Sang In Berkeley Square" PERFORMER "Stephane Grappelli" INDEX 00 03:34:33FILE "13. A Nightingale Sang In Berkeley Square.wav" WAVE INDEX 01 00:00:00 TRACK 14 AUDIO TITLE "Someone To Watch Over Me • I Got Rhythm" PERFORMER "Stephane Grappelli" INDEX 00 03:48:32FILE "14. Someone To Watch Over Me • I Got Rhythm.wav" WAVE INDEX 01 00:00:00


Трекер:  [ 05-Фев-2012 15:47 ]

  

Скачать .torrent

Размер .torrent файла 8 KB


Размер: 326 MB
Хэш (hash) релиза: 1b846b4dc0e42ec25c716cebe3d65a03b0a9464d

Еще никто не оставлял запись к записи скачать торрент Stephane Grappelli — Verve Jazz Masters 11 — 1994, FLAC . Будь первым!

!Обратная связь