Скачать через торрент музыку Duke Ellington - Afro Bossa & Concert In The Virgin Islands бесплатно без регистрации torrent

Если у вас наблюдаются проблемы со скриншотами, переходом по ссылками, скачиванием торрентов - проблемы в блокировщике рекламы AdBlock. #хорошегоДня!


Статистика раздачи
Размер:  420 MB   |    Зарегистрирован:  5 лет 8 месяцев   |    .torrent скачан:  34 раза   |   
Раздают:  1  
   
Загрузка...
 
Автор Сообщение

Galfimbul

avatar Galfimbul


Duke Ellington - Afro Bossa & Concert In The Virgin Islands (1963)

Жанр: Swing, Big Band
Страна-производитель диска: Россия
Год издания диска: 2001
Аудиокодек: APE (*.ape)
Тип рипа: image+.cue
Битрейт аудио: lossless
Продолжительность: 01:13:49
Источник (релизер): Рип с диска.
Наличие сканов в содержимом раздачи: да

Треклист:

01. Afro-Bossa
02. Purple Gazelle
03. Absinthe
04. Moonbow
05. Sempre Amore
06. Silk Lace
07. Tigress
08. Angu
09. Volupte
10.Bonga
11.Pyramid
12.Eighth Veil
13.Island Virgin
14.Virgin Jungle
15.Fiddler On The Diddle
16.Jungle Kitty
17.Things Ain't What They Used To Be
18.Big Fat Alice's Blues
19.Chelsea Bridge
20.The Opener
21.Nysterious Chick
22.Barefoot Stomper
23.Fade Up


Personnel:

Roy Burrowes, Cat Anderson, Cootie Williams - tp
Ray Nance - tp, violin
Lawrence Brown, Buster Cooper - tb
Chuck Connors - Btb
Jimmy Hamilton - cl,ts
Russel Procope - as,cl
Johnny Hodges - as
Paul Gonsalves - ts
Harry Carney - bars, cl, Bcl
Duke Ellington - p
Billy Strayhorn - p
Ernie Shepard - b
Sam Woodyard - dr
 
Exact Audio Copy V1.0 beta 3 from 29. August 2011

Отчёт EAC об извлечении, выполненном 6. ноября 2011, 12:58

Duke Ellington / Afro Bossa & Concert In The Virgin Islands (1963)

Дисковод: Optiarc DVD RW AD-5200A Adapter: 0 ID: 1

Режим чтения : ДостоверностьИспользование точного потока : ДаОтключение кэша аудио : ДаИспользование указателей C2 : Нет

Коррекция смещения при чтении : 48Способность читать области Lead-in и Lead-out : НетЗаполнение пропущенных сэмплов тишиной : ДаУдаление блоков с тишиной в начале и конце : НетПри вычислениях CRC использовались нулевые сэмплы : ДаИнтерфейс : Установленный внешний ASPI-интерфейс

Выходной формат : Пользовательский кодировщикВыбранный битрейт : 128 kBit/sКачество : ВысокийДобавление ID3-тега : НетУтилита сжатия : C:\Program Files\Monkey's Audio\MAC.exeДополнительные параметры : %source% %dest% -c3000

TOC извлечённого CD

Трек | Старт | Длительность | Начальный сектор | Конечный сектор --------------------------------------------------------------------- 1 | 0:00.00 | 4:23.22 | 0 | 19746 2 | 4:23.22 | 2:44.48 | 19747 | 32094 3 | 7:07.70 | 3:33.50 | 32095 | 48119 4 | 10:41.45 | 2:34.30 | 48120 | 59699 5 | 13:16.00 | 3:15.00 | 59700 | 74324 6 | 16:31.00 | 2:33.07 | 74325 | 85806 7 | 19:04.07 | 3:07.58 | 85807 | 99889 8 | 22:11.65 | 2:41.72 | 99890 | 112036 9 | 24:53.62 | 2:42.60 | 112037 | 124246 10 | 27:36.47 | 2:51.70 | 124247 | 137141 11 | 30:28.42 | 3:04.35 | 137142 | 150976 12 | 33:33.02 | 2:50.33 | 150977 | 163759 13 | 36:23.35 | 4:08.22 | 163760 | 182381 14 | 40:31.57 | 3:45.35 | 182382 | 199291 15 | 44:17.17 | 3:13.63 | 199292 | 213829 16 | 47:31.05 | 3:00.70 | 213830 | 227399 17 | 50:32.00 | 2:59.05 | 227400 | 240829 18 | 53:31.05 | 4:00.00 | 240830 | 258829 19 | 57:31.05 | 3:46.35 | 258830 | 275814 20 | 61:17.40 | 2:48.70 | 275815 | 288484 21 | 64:06.35 | 3:14.37 | 288485 | 303071 22 | 67:20.72 | 2:52.38 | 303072 | 316009 23 | 70:13.35 | 3:35.12 | 316010 | 332146

Характеристики диапазона извлечения и сообщения об ошибках

Выбранный диапазон

Имя файла E:\На трекер\2002.Duke Ellington - Afro Bossa & Concert In The Virgin Islands (1963)\Duke Ellington - Afro Bossa & Concert In The Virgin Islands (1963).wav

Пиковый уровень 97.9 % Скорость извлечения 3.6 X Качество диапазона 100.0 % CRC теста 4431E4C2 CRC копии 4431E4C2 Копирование... OK

Ошибок не произошло

AccurateRip: сводка

Трек 1 точность не определена (достоверность 1) [72315070], AccurateRip вернул [FBD163B9] (AR v2)Трек 2 точность не определена (достоверность 1) [3DF302A1], AccurateRip вернул [3AB175F7] (AR v2)Трек 3 точность не определена (достоверность 1) [5B1C2251], AccurateRip вернул [D8A45B49] (AR v2)Трек 4 точность не определена (достоверность 1) [DB26BF99], AccurateRip вернул [5D7C3FE2] (AR v2)Трек 5 точность не определена (достоверность 1) [5CECE226], AccurateRip вернул [037373DE] (AR v2)Трек 6 точность не определена (достоверность 1) [0E4D48FE], AccurateRip вернул [E5BB985D] (AR v2)Трек 7 точность не определена (достоверность 1) [969E3DA5], AccurateRip вернул [E3F246FA] (AR v2)Трек 8 точность не определена (достоверность 1) [1DDEEBD5], AccurateRip вернул [1D7B36AC] (AR v2)Трек 9 точность не определена (достоверность 1) [22F9FB7B], AccurateRip вернул [C240F84E] (AR v2)Трек 10 точность не определена (достоверность 1) [1CE93178], AccurateRip вернул [91941DFD] (AR v2)Трек 11 точность не определена (достоверность 1) [61F48127], AccurateRip вернул [1AD64472] (AR v2)Трек 12 точность не определена (достоверность 1) [4D0EB4A9], AccurateRip вернул [55D38369] (AR v2)Трек 13 точность не определена (достоверность 1) [695D9D47], AccurateRip вернул [FAD4CD16] (AR v2)Трек 14 точность не определена (достоверность 1) [513037E5], AccurateRip вернул [EC31234E] (AR v2)Трек 15 точность не определена (достоверность 1) [9DCFE69B], AccurateRip вернул [30655E83] (AR v2)Трек 16 точность не определена (достоверность 1) [EBE5BC44], AccurateRip вернул [7E106ABE] (AR v2)Трек 17 точность не определена (достоверность 1) [5DAFF625], AccurateRip вернул [8D20CE79] (AR v2)Трек 18 точность не определена (достоверность 1) [0F6E420C], AccurateRip вернул [B286A87E] (AR v2)Трек 19 точность не определена (достоверность 1) [F7ABC33A], AccurateRip вернул [A452DEFF] (AR v2)Трек 20 точность не определена (достоверность 1) [A4BF50DD], AccurateRip вернул [40D4AFE0] (AR v2)Трек 21 точность не определена (достоверность 1) [CF3DC9C0], AccurateRip вернул [A0E56652] (AR v2)Трек 22 точность не определена (достоверность 1) [EA4251C5], AccurateRip вернул [2A33E2CF] (AR v2)Трек 23 точность не определена (достоверность 1) [F8734D77], AccurateRip вернул [3D1D4EB1] (AR v2)

Ни один трек не прошёл проверки на точностьВ вашей базе может быть иной вариант штамповки диска

Конец отчёта

==== Контрольная сумма отчёта 8EA0BC5DAA359B05C70B70028513365412FBA1CD63B96C33A8E3E48274CFAD98 ====
 
REM GENRE JazzREM DATE 2002REM DISCID 56114C17REM COMMENT "ExactAudioCopy v1.0b3"PERFORMER "Duke Ellington"TITLE "Afro Bossa & Concert In The Virgin Islands (1963)"FILE "Duke Ellington - Afro Bossa & Concert In The Virgin Islands (1963).ape" WAVE TRACK 01 AUDIO TITLE "Afro-Bossa" PERFORMER "Duke Ellington" INDEX 01 00:00:00 TRACK 02 AUDIO TITLE "Purple Gazelle" PERFORMER "Duke Ellington" INDEX 00 04:20:60 INDEX 01 04:23:22 TRACK 03 AUDIO TITLE "Absinthe" PERFORMER "Duke Ellington" INDEX 00 07:05:60 INDEX 01 07:07:70 TRACK 04 AUDIO TITLE "Moonbow" PERFORMER "Duke Ellington" INDEX 00 10:39:70 INDEX 01 10:41:45 TRACK 05 AUDIO TITLE "Sempre Amore" PERFORMER "Duke Ellington" INDEX 00 13:13:07 INDEX 01 13:16:00 TRACK 06 AUDIO TITLE "Silk Lace" PERFORMER "Duke Ellington" INDEX 00 16:28:47 INDEX 01 16:31:00 TRACK 07 AUDIO TITLE "Tigress" PERFORMER "Duke Ellington" INDEX 00 19:01:40 INDEX 01 19:04:07 TRACK 08 AUDIO TITLE "Angu" PERFORMER "Duke Ellington" INDEX 00 22:10:12 INDEX 01 22:11:65 TRACK 09 AUDIO TITLE "Volupte" PERFORMER "Duke Ellington" INDEX 00 24:51:47 INDEX 01 24:53:62 TRACK 10 AUDIO TITLE "Bonga" PERFORMER "Duke Ellington" INDEX 00 27:35:32 INDEX 01 27:36:47 TRACK 11 AUDIO TITLE "Pyramid" PERFORMER "Duke Ellington" INDEX 00 30:26:17 INDEX 01 30:28:42 TRACK 12 AUDIO TITLE "Eighth Veil" PERFORMER "Duke Ellington" INDEX 00 33:31:05 INDEX 01 33:33:02 TRACK 13 AUDIO TITLE "Island Virgin" PERFORMER "Duke Ellington" INDEX 00 36:20:70 INDEX 01 36:23:35 TRACK 14 AUDIO TITLE "Virgin Jungle" PERFORMER "Duke Ellington" INDEX 00 40:29:55 INDEX 01 40:31:57 TRACK 15 AUDIO TITLE "Fiddler On The Diddle" PERFORMER "Duke Ellington" INDEX 00 44:15:00 INDEX 01 44:17:17 TRACK 16 AUDIO TITLE "Jungle Kitty" PERFORMER "Duke Ellington" INDEX 00 47:29:27 INDEX 01 47:31:05 TRACK 17 AUDIO TITLE "Things Ain't What They Used To Be" PERFORMER "Duke Ellington" INDEX 00 50:29:57 INDEX 01 50:32:00 TRACK 18 AUDIO TITLE "Big Fat Alice's Blues" PERFORMER "Duke Ellington" INDEX 00 53:28:44 INDEX 01 53:31:05 TRACK 19 AUDIO TITLE "Chelsea Bridge" PERFORMER "Duke Ellington" INDEX 00 57:28:50 INDEX 01 57:31:05 TRACK 20 AUDIO TITLE "The Opener" PERFORMER "Duke Ellington" INDEX 00 61:15:65 INDEX 01 61:17:40 TRACK 21 AUDIO TITLE "Nysterious Chick" PERFORMER "Duke Ellington" INDEX 00 64:04:50 INDEX 01 64:06:35 TRACK 22 AUDIO TITLE "Barefoot Stomper" PERFORMER "Duke Ellington" INDEX 00 67:18:62 INDEX 01 67:20:72 TRACK 23 AUDIO TITLE "Fade Up" PERFORMER "Duke Ellington" INDEX 00 70:11:40 INDEX 01 70:13:35


Трекер:  [ 05-Фев-2012 15:47 ]

  

Скачать .torrent

Размер .torrent файла 17 KB


Размер: 420 MB
Хэш (hash) релиза: cea346a5579d5a3d37782097e637c196bf7d9508

Еще никто не оставлял запись к записи скачать торрент Duke Ellington - Afro Bossa & Concert In The Virgin Islands . Будь первым!

!Обратная связь