Скачать через торрент музыку Duke Ellington - Jazz Masters 4 бесплатно без регистрации torrent

Если у вас наблюдаются проблемы со скриншотами, переходом по ссылками, скачиванием торрентов - проблемы в блокировщике рекламы AdBlock. #хорошегоДня!


Статистика раздачи
Размер:  390 MB   |    Зарегистрирован:  5 лет 8 месяцев   |    .torrent скачан:  29 раз   |   
Раздают:  1  
   
Загрузка...
 
Автор Сообщение

Galfimbul

avatar Galfimbul


Duke Ellington - Jazz Masters 4 (1993)

Жанр: Jazz
Год выпуска диска: 1993
Производитель диска: Germany
Аудио кодек: APE
Тип рипа: image+.cue
Битрейт аудио: lossless
Продолжительность: 1:09:57
Трэклист:
01. Take the "A" Train 00:35
02. La Plus Belle Africaine 13:58
03. Flirtibird 03:05
04. Dimenuendo in Blue and Blow by Blow 07:40
05. Loveless Love 07:08
06. Going Up 04:53
07. St. Louis Blues 05:46
08. Stompy Jones 06:41
09. Caravan 03:55
10. Total Jazz 03:26
11. Perdido 04:37
12. Jam with Sam 04:09
13. Rockin' in Rhythm 04:14
Доп. информация:
Exact Audio Copy V0.99 prebeta 2 from 28. July 2007

Отчёт EAC об извлечении, выполненном 23. апреля 2008, 18:03

Duke Ellington / Jazz Masters 4

Дисковод: TEAC DV-W58G-A Adapter: 0 ID: 0

Режим чтения : Достоверность
Использование точного потока : Да
Отключение кэша аудио : Да
Использование указателей C2 : Нет

Коррекция смещения при чтении : 12
Способность читать области Lead-in и Lead-out : Нет
Заполнение пропущенных сэмплов тишиной : Да
Удаление блоков с тишиной в начале и конце : Нет
При вычислениях CRC использовались нулевые сэмплы : Да
Интерфейс : Установленный внешний ASPI-интерфейс

Выходной формат : Внутренние WAV-операции
Формат сэмплов : 44.100 Гц; 16 бит; стерео

TOC извлечённого CD

Трек | Старт | Длительность | Начальный сектор | Конечный сектор
---------------------------------------------------------------------
1 | 0:00.32 | 0:35.38 | 32 | 2694
2 | 0:35.70 | 13:58.37 | 2695 | 65581
3 | 14:34.32 | 3:05.35 | 65582 | 79491
4 | 17:39.67 | 7:40.00 | 79492 | 113991
5 | 25:19.67 | 7:08.63 | 113992 | 146154
6 | 32:28.55 | 4:53.17 | 146155 | 168146
7 | 37:21.72 | 5:46.18 | 168147 | 194114
8 | 43:08.15 | 6:41.30 | 194115 | 224219
9 | 49:49.45 | 3:55.62 | 224220 | 241906
10 | 53:45.32 | 3:26.10 | 241907 | 257366
11 | 57:11.42 | 4:37.03 | 257367 | 278144
12 | 61:48.45 | 4:09.40 | 278145 | 296859
13 | 65:58.10 | 4:14.17 | 296860 | 315926

Характеристики диапазона извлечения и сообщения об ошибках

Выбранный диапазон

Имя файла D:\EAC Obraz\Duke Ellington - Jazz Masters 4.wav

Пиковый уровень 100.0 %
Качество диапазона 100.0 %
CRC копии EAC89C80
Копирование... OK

Ошибок не произошло

Конец отчёта


Трекер:  [ 05-Фев-2012 15:47 ]

  

Скачать .torrent

Размер .torrent файла 16 KB


Размер: 390 MB
Хэш (hash) релиза: 17fc3e5e22aa9cdc30dc25555ffef8a98ec80869

Еще никто не оставлял запись к записи скачать торрент Duke Ellington - Jazz Masters 4 . Будь первым!

!Обратная связь