Скачать через торрент музыку Duke Ellington - Lotus Blossom бесплатно без регистрации torrent

Если у вас наблюдаются проблемы со скриншотами, переходом по ссылками, скачиванием торрентов - проблемы в блокировщике рекламы AdBlock. #хорошегоДня!


Статистика раздачи
Размер:  260 MB   |    Зарегистрирован:  5 лет 8 месяцев   |    .torrent скачан:  29 раз   |   
Раздают:  1  
   
Загрузка...
 
Автор Сообщение

Galfimbul

avatar Galfimbul


Duke Ellington - Lotus Blossom (1967)

Жанр: Swing, Big Band
Страна-производитель диска: Россия
Год издания диска: 1999
Издатель (лейбл): ADA Sound Ltd.
Аудиокодек: APE (*.ape)
Тип рипа: image+.cue
Битрейт аудио: lossless
Продолжительность: 00:44:40
Источник (релизер): Рип с диска.
Наличие сканов в содержимом раздачи: да

Треклист:

01. Snibor
02. Boo-Dah
03. Blood Count
04. U.M.M.G.
05. Charpoy
06. After All
07. The Intimacy Of The Blues
08. Rain Check
09. Day-Dream
10.Rock Skipinn At The Blue Note
11.All Day Long
12.Lotus Blossom
 
Exact Audio Copy V1.0 beta 3 from 29. August 2011

Отчёт EAC об извлечении, выполненном 7. ноября 2011, 19:40

Duke Ellington / Lotus Blossom

Дисковод: Optiarc DVD RW AD-5200A Adapter: 0 ID: 1

Режим чтения : ДостоверностьИспользование точного потока : ДаОтключение кэша аудио : ДаИспользование указателей C2 : Нет

Коррекция смещения при чтении : 48Способность читать области Lead-in и Lead-out : НетЗаполнение пропущенных сэмплов тишиной : ДаУдаление блоков с тишиной в начале и конце : НетПри вычислениях CRC использовались нулевые сэмплы : ДаИнтерфейс : Установленный внешний ASPI-интерфейс

Выходной формат : Пользовательский кодировщикВыбранный битрейт : 128 kBit/sКачество : ВысокийДобавление ID3-тега : НетУтилита сжатия : C:\Program Files\Monkey's Audio\MAC.exeДополнительные параметры : %source% %dest% -c3000

TOC извлечённого CD

Трек | Старт | Длительность | Начальный сектор | Конечный сектор --------------------------------------------------------------------- 1 | 0:00.37 | 4:20.25 | 37 | 19561 2 | 4:20.62 | 3:29.69 | 19562 | 35305 3 | 7:50.56 | 4:21.05 | 35306 | 54885 4 | 12:11.61 | 3:16.38 | 54886 | 69623 5 | 15:28.24 | 3:09.55 | 69624 | 83853 6 | 18:38.04 | 3:54.39 | 83854 | 101442 7 | 22:32.43 | 3:03.04 | 101443 | 115171 8 | 25:35.47 | 4:39.26 | 115172 | 136122 9 | 30:14.73 | 4:26.47 | 136123 | 156119 10 | 34:41.45 | 3:04.15 | 156120 | 169934 11 | 37:45.60 | 2:59.59 | 169935 | 183418 12 | 40:45.44 | 3:55.20 | 183419 | 201063

Характеристики диапазона извлечения и сообщения об ошибках

Выбранный диапазон

Имя файла E:\На трекер\1999.Duke Ellington - Lotus Blossom (1967)\Duke Ellington - Lotus Blossom.wav

Пиковый уровень 100.0 % Скорость извлечения 3.4 X Качество диапазона 100.0 % CRC теста 4398762E CRC копии 4398762E Копирование... OK

Ошибок не произошло

AccurateRip: сводка

Трек 1 отсутствует в базе данныхТрек 2 отсутствует в базе данныхТрек 3 отсутствует в базе данныхТрек 4 отсутствует в базе данныхТрек 5 отсутствует в базе данныхТрек 6 отсутствует в базе данныхТрек 7 отсутствует в базе данныхТрек 8 отсутствует в базе данныхТрек 9 отсутствует в базе данныхТрек 10 отсутствует в базе данныхТрек 11 отсутствует в базе данныхТрек 12 отсутствует в базе данных

Ни одного трека нет в базе AccurateRip

Конец отчёта

==== Контрольная сумма отчёта CA4CA1E70CB14EE80CEE35C16E48DEB1D853A3350DB7EA687B8C5A2130758940 ====
 
REM GENRE JazzREM DATE 1999REM DISCID 920A780CREM COMMENT "ExactAudioCopy v1.0b3"PERFORMER "Duke Ellington"TITLE "Lotus Blossom"FILE "Duke Ellington - Lotus Blossom.ape" WAVE TRACK 01 AUDIO TITLE "Snibor" PERFORMER "Duke Ellington" INDEX 00 00:00:00 INDEX 01 00:00:37 TRACK 02 AUDIO TITLE "Boo-Dah" PERFORMER "Duke Ellington" INDEX 00 04:16:51 INDEX 01 04:20:62 TRACK 03 AUDIO TITLE "Blood Count" PERFORMER "Duke Ellington" INDEX 00 07:47:16 INDEX 01 07:50:56 TRACK 04 AUDIO TITLE "U.M.M.G." PERFORMER "Duke Ellington" INDEX 00 12:08:20 INDEX 01 12:11:61 TRACK 05 AUDIO TITLE "Charpoy" PERFORMER "Duke Ellington" INDEX 00 15:25:23 INDEX 01 15:28:24 TRACK 06 AUDIO TITLE "After All" PERFORMER "Duke Ellington" INDEX 00 18:35:13 INDEX 01 18:38:04 TRACK 07 AUDIO TITLE "The Intimacy Of The Blues" PERFORMER "Duke Ellington" INDEX 00 22:29:25 INDEX 01 22:32:43 TRACK 08 AUDIO TITLE "Rain Check" PERFORMER "Duke Ellington" INDEX 00 25:31:18 INDEX 01 25:35:47 TRACK 09 AUDIO TITLE "Day - Dream" PERFORMER "Duke Ellington" INDEX 00 30:11:72 INDEX 01 30:14:73 TRACK 10 AUDIO TITLE "Rock Skipinn At The Blue Note" PERFORMER "Duke Ellington" INDEX 00 34:38:39 INDEX 01 34:41:45 TRACK 11 AUDIO TITLE "All Day Long" PERFORMER "Duke Ellington" INDEX 00 37:42:08 INDEX 01 37:45:60 TRACK 12 AUDIO TITLE "Lotus Blossom" PERFORMER "Duke Ellington" INDEX 00 40:42:26 INDEX 01 40:45:44


Трекер:  [ 05-Фев-2012 15:46 ]

  

Скачать .torrent

Размер .torrent файла 11 KB


Размер: 260 MB
Хэш (hash) релиза: 34bab9cee52c88db031923453e381c3f2327bd71

Еще никто не оставлял запись к записи скачать торрент Duke Ellington - Lotus Blossom . Будь первым!

!Обратная связь