Скачать через торрент музыку Louis Armstrong — Verve Jazz Masters 1 — 1993, FLAC бесплатно без регистрации torrent

Если у вас наблюдаются проблемы со скриншотами, переходом по ссылками, скачиванием торрентов - проблемы в блокировщике рекламы AdBlock. #хорошегоДня!


Статистика раздачи
Размер:  330 MB   |    Зарегистрирован:  5 лет 8 месяцев   |    .torrent скачан:  34 раза   |   
Раздают:  1  
   
Загрузка...
 
Автор Сообщение

Galfimbul

avatar Galfimbul


Louis Armstrong — Verve Jazz Masters 1

Жанр: New Orleans Jazz, Vocal Jazz
Год выпуска диска: 1993
Производитель диска: Verve
Аудио кодек: FLAC
Тип рипа: tracks+.cue
Битрейт аудио: lossless
Продолжительность: 70:10

Треклист:
01. Just One Of Those Things (4:03)
02. That Old Feeling (2:43)
03. I Got A Right To Sing The Blues (3:55)
04. Learnin' The Blues (7:12)
05. Let's Do It (Let's Fall In Love) (8:43)
06. There's A Boat Dat's Leavin' Soon For New York (4:51)
07. Blues In The Night (5:11)
08. You're The Top (2:31)
09. Body And Soul (4:42)
10. When Your Lover Has Gone (4:38)
11. A Fine Romance (3:51)
12. Home (5:48)
13. I've Got The World On String (2:49)
14. I Was Doing All Right (3:20)
15. When The Saints Go Machin' In (5:54)
 
 
AUDIOCHECKER v2.0 beta (build 457) - by Dester - opdester@freemail.hu~~~~~~~~~~~~~~~~~~~~~~~~~~~~~~~~~~

Started at: понедельник, 26. 07. 2010. - 1:13.5515 files found

01 -===- D:\VJM 01 - Louis Armstrong\01. Just One Of Those Things.flac Extracted successfully Conclusion: this track is CDDA with probability 100% Tempfile successfully deleted.

02 -===- D:\VJM 01 - Louis Armstrong\02. That Old Feeling.flac Extracted successfully Conclusion: this track is CDDA with probability 100% Tempfile successfully deleted.

03 -===- D:\VJM 01 - Louis Armstrong\03. I Got A Right To Sing The Blues.flac Extracted successfully Conclusion: this track is CDDA with probability 100% Tempfile successfully deleted.

04 -===- D:\VJM 01 - Louis Armstrong\04. Learnin' The Blues.flac Extracted successfully Conclusion: this track is CDDA with probability 100% Tempfile successfully deleted.

05 -===- D:\VJM 01 - Louis Armstrong\05. Let's Do It (Let's Fall In Love).flac Extracted successfully Conclusion: this track is CDDA with probability 100% Tempfile successfully deleted.

06 -===- D:\VJM 01 - Louis Armstrong\06. There's A Boat Dat's Leavin' Soon For New York.flac Extracted successfully Conclusion: this track is CDDA with probability 100% Tempfile successfully deleted.

07 -===- D:\VJM 01 - Louis Armstrong\07. Blues In The Night.flac Extracted successfully Conclusion: this track is CDDA with probability 100% Tempfile successfully deleted.

08 -===- D:\VJM 01 - Louis Armstrong\08. You're The Top.flac Extracted successfully Conclusion: this track is CDDA with probability 100% Tempfile successfully deleted.

09 -===- D:\VJM 01 - Louis Armstrong\09. Body And Soul.flac Extracted successfully Conclusion: this track is CDDA with probability 100% Tempfile successfully deleted.

10 -===- D:\VJM 01 - Louis Armstrong\10. When Your Lover Has Gone.flac Extracted successfully Conclusion: this track is CDDA with probability 100% Tempfile successfully deleted.

11 -===- D:\VJM 01 - Louis Armstrong\11. A Fine Romance.flac Extracted successfully Conclusion: this track is CDDA with probability 100% Tempfile successfully deleted.

12 -===- D:\VJM 01 - Louis Armstrong\12. Home.flac Extracted successfully Conclusion: this track is CDDA with probability 99% Tempfile successfully deleted.

13 -===- D:\VJM 01 - Louis Armstrong\13. I've Got The World On String.flac Extracted successfully Conclusion: this track is CDDA with probability 100% Tempfile successfully deleted.

14 -===- D:\VJM 01 - Louis Armstrong\14. I Was Doing All Right.flac Extracted successfully Conclusion: this track is CDDA with probability 100% Tempfile successfully deleted.

15 -===- D:\VJM 01 - Louis Armstrong\15. When The Saints Go Machin' In.flac Extracted successfully Conclusion: this track is CDDA with probability 100% Tempfile successfully deleted.

Finished at: понедельник, 26. 07. 2010. - 1:20.51 (operation time: 0:06.56)
 
X Lossless Decoder version 20100218 (116.4)

XLD extraction logfile from 2010-02-21 01:52:59 -0800

Louis Armstrong / Jazz Masters 1

Used drive : HL-DT-ST DVDRW GS21N (revision SA18)

Use cdparanoia mode : YES (CDParanoia III 10.2 engine)Disable audio cache : OK for the drive with cache less than 2750KBMake use of C2 pointers : NORead offset correction : 667Max retry count : 100

TOC of the extracted CD Track | Start | Length | Start sector | End sector --------------------------------------------------------- 1 | 00:00:32 | 04:05:18 | 32 | 18424 2 | 04:05:50 | 02:44:20 | 18425 | 30744 3 | 06:49:70 | 03:56:32 | 30745 | 48476 4 | 10:46:27 | 07:12:10 | 48477 | 80886 5 | 17:58:37 | 08:45:43 | 80887 | 120304 6 | 26:44:05 | 04:53:00 | 120305 | 142279 7 | 31:37:05 | 05:12:52 | 142280 | 165731 8 | 36:49:57 | 02:32:15 | 165732 | 177146 9 | 39:21:72 | 04:43:43 | 177147 | 198414 10 | 44:05:40 | 04:38:30 | 198415 | 219294 11 | 48:43:70 | 03:53:52 | 219295 | 236821 12 | 52:37:47 | 05:50:33 | 236822 | 263104 13 | 58:28:05 | 02:50:42 | 263105 | 275896 14 | 61:18:47 | 03:20:38 | 275897 | 290934 15 | 64:39:10 | 05:54:02 | 290935 | 317486

Track 01 Filename : /Users/iMac/Desktop/Louis Armstrong - Jazz Masters 1/01 - Just One of Those Things.flac

Pre-gap length : 00:02:32

CRC32 hash (test run) : 3E55F774 CRC32 hash : 3E55F774 CRC32 hash (skip zero) : A443A847 Statistics Read error : 0 Skipped (treated as error) : 0 Edge jitter error (maybe fixed) : 0 Atom jitter error (maybe fixed) : 0 Drift error (maybe fixed) : 0 Dropped bytes error (maybe fixed) : 0 Duplicated bytes error (maybe fixed) : 0 Inconsistency in error sectors : 0

Track 02 Filename : /Users/iMac/Desktop/Louis Armstrong - Jazz Masters 1/02 - That Old Feeling.flac

Pre-gap length : 00:02:33

CRC32 hash (test run) : 9AC6503E CRC32 hash : 9AC6503E CRC32 hash (skip zero) : 2B0A25B5 Statistics Read error : 0 Skipped (treated as error) : 0 Edge jitter error (maybe fixed) : 0 Atom jitter error (maybe fixed) : 0 Drift error (maybe fixed) : 0 Dropped bytes error (maybe fixed) : 0 Duplicated bytes error (maybe fixed) : 0 Inconsistency in error sectors : 0

Track 03 Filename : /Users/iMac/Desktop/Louis Armstrong - Jazz Masters 1/03 - I Got a Right to Sing the Blues.flac

Pre-gap length : 00:01:33

CRC32 hash (test run) : 8A12691D CRC32 hash : 8A12691D CRC32 hash (skip zero) : D3024393 Statistics Read error : 0 Skipped (treated as error) : 0 Edge jitter error (maybe fixed) : 0 Atom jitter error (maybe fixed) : 0 Drift error (maybe fixed) : 0 Dropped bytes error (maybe fixed) : 0 Duplicated bytes error (maybe fixed) : 0 Inconsistency in error sectors : 0

Track 04 Filename : /Users/iMac/Desktop/Louis Armstrong - Jazz Masters 1/04 - Learnin' the Blues.flac

Pre-gap length : 00:01:25

CRC32 hash (test run) : 79BCBD79 CRC32 hash : 79BCBD79 CRC32 hash (skip zero) : CE446B9A Statistics Read error : 0 Skipped (treated as error) : 0 Edge jitter error (maybe fixed) : 0 Atom jitter error (maybe fixed) : 0 Drift error (maybe fixed) : 0 Dropped bytes error (maybe fixed) : 0 Duplicated bytes error (maybe fixed) : 0 Inconsistency in error sectors : 0

Track 05 Filename : /Users/iMac/Desktop/Louis Armstrong - Jazz Masters 1/05 - Let's Do it (let's Fall in Love).flac

CRC32 hash (test run) : 466944E7 CRC32 hash : 466944E7 CRC32 hash (skip zero) : 4CBE0641 Statistics Read error : 0 Skipped (treated as error) : 0 Edge jitter error (maybe fixed) : 0 Atom jitter error (maybe fixed) : 0 Drift error (maybe fixed) : 0 Dropped bytes error (maybe fixed) : 0 Duplicated bytes error (maybe fixed) : 0 Inconsistency in error sectors : 0

Track 06 Filename : /Users/iMac/Desktop/Louis Armstrong - Jazz Masters 1/06 - There's a Boat Dat's Leavin' Soon for New York.flac

Pre-gap length : 00:03:00

CRC32 hash (test run) : 38A1A602 CRC32 hash : 38A1A602 CRC32 hash (skip zero) : 997B1981 Statistics Read error : 0 Skipped (treated as error) : 0 Edge jitter error (maybe fixed) : 0 Atom jitter error (maybe fixed) : 0 Drift error (maybe fixed) : 0 Dropped bytes error (maybe fixed) : 0 Duplicated bytes error (maybe fixed) : 0 Inconsistency in error sectors : 0

Track 07 Filename : /Users/iMac/Desktop/Louis Armstrong - Jazz Masters 1/07 - Blues in the Night.flac

Pre-gap length : 00:01:48

CRC32 hash (test run) : 7D55A701 CRC32 hash : 7D55A701 CRC32 hash (skip zero) : 24FEEFB2 Statistics Read error : 0 Skipped (treated as error) : 0 Edge jitter error (maybe fixed) : 0 Atom jitter error (maybe fixed) : 0 Drift error (maybe fixed) : 0 Dropped bytes error (maybe fixed) : 0 Duplicated bytes error (maybe fixed) : 0 Inconsistency in error sectors : 0

Track 08 Filename : /Users/iMac/Desktop/Louis Armstrong - Jazz Masters 1/08 - You're the Top.flac

Pre-gap length : 00:01:40

CRC32 hash (test run) : 028CBB31 CRC32 hash : 028CBB31 CRC32 hash (skip zero) : FBF17BF7 Statistics Read error : 0 Skipped (treated as error) : 0 Edge jitter error (maybe fixed) : 0 Atom jitter error (maybe fixed) : 0 Drift error (maybe fixed) : 0 Dropped bytes error (maybe fixed) : 0 Duplicated bytes error (maybe fixed) : 0 Inconsistency in error sectors : 0

Track 09 Filename : /Users/iMac/Desktop/Louis Armstrong - Jazz Masters 1/09 - Body and Soul.flac

Pre-gap length : 00:01:35

CRC32 hash (test run) : 639E0A60 CRC32 hash : 639E0A60 CRC32 hash (skip zero) : 3787FB38 Statistics Read error : 0 Skipped (treated as error) : 0 Edge jitter error (maybe fixed) : 0 Atom jitter error (maybe fixed) : 0 Drift error (maybe fixed) : 0 Dropped bytes error (maybe fixed) : 0 Duplicated bytes error (maybe fixed) : 0 Inconsistency in error sectors : 0

Track 10 Filename : /Users/iMac/Desktop/Louis Armstrong - Jazz Masters 1/10 - When Your Lover Has Gone.flac

Pre-gap length : 00:01:72

CRC32 hash (test run) : C4372C3F CRC32 hash : C4372C3F CRC32 hash (skip zero) : EBC27901 Statistics Read error : 0 Skipped (treated as error) : 0 Edge jitter error (maybe fixed) : 0 Atom jitter error (maybe fixed) : 0 Drift error (maybe fixed) : 0 Dropped bytes error (maybe fixed) : 0 Duplicated bytes error (maybe fixed) : 0 Inconsistency in error sectors : 0

Track 11 Filename : /Users/iMac/Desktop/Louis Armstrong - Jazz Masters 1/11 - A Fine Romance.flac

Pre-gap length : 00:00:48

CRC32 hash (test run) : 3C0A23BF CRC32 hash : 3C0A23BF CRC32 hash (skip zero) : CA45D16B Statistics Read error : 0 Skipped (treated as error) : 0 Edge jitter error (maybe fixed) : 0 Atom jitter error (maybe fixed) : 0 Drift error (maybe fixed) : 0 Dropped bytes error (maybe fixed) : 0 Duplicated bytes error (maybe fixed) : 0 Inconsistency in error sectors : 0

Track 12 Filename : /Users/iMac/Desktop/Louis Armstrong - Jazz Masters 1/12 - Home.flac

Pre-gap length : 00:02:44

CRC32 hash (test run) : 97C7E511 CRC32 hash : 97C7E511 CRC32 hash (skip zero) : F9DC2EA0 Statistics Read error : 0 Skipped (treated as error) : 0 Edge jitter error (maybe fixed) : 0 Atom jitter error (maybe fixed) : 0 Drift error (maybe fixed) : 0 Dropped bytes error (maybe fixed) : 0 Duplicated bytes error (maybe fixed) : 0 Inconsistency in error sectors : 0

Track 13 Filename : /Users/iMac/Desktop/Louis Armstrong - Jazz Masters 1/13 - I've Got the World on String.flac

Pre-gap length : 00:02:38

CRC32 hash (test run) : 436C43E9 CRC32 hash : 436C43E9 CRC32 hash (skip zero) : 22CD5C6F Statistics Read error : 0 Skipped (treated as error) : 0 Edge jitter error (maybe fixed) : 0 Atom jitter error (maybe fixed) : 0 Drift error (maybe fixed) : 0 Dropped bytes error (maybe fixed) : 0 Duplicated bytes error (maybe fixed) : 0 Inconsistency in error sectors : 0

Track 14 Filename : /Users/iMac/Desktop/Louis Armstrong - Jazz Masters 1/14 - I Was Doing All Right.flac

Pre-gap length : 00:01:16

CRC32 hash (test run) : BF7935D9 CRC32 hash : BF7935D9 CRC32 hash (skip zero) : D875578B Statistics Read error : 0 Skipped (treated as error) : 0 Edge jitter error (maybe fixed) : 0 Atom jitter error (maybe fixed) : 0 Drift error (maybe fixed) : 0 Dropped bytes error (maybe fixed) : 0 Duplicated bytes error (maybe fixed) : 0 Inconsistency in error sectors : 0

Track 15 Filename : /Users/iMac/Desktop/Louis Armstrong - Jazz Masters 1/15 - When the Saints Go Machin' in.flac

Pre-gap length : 00:00:38

CRC32 hash (test run) : B034702E CRC32 hash : B034702E CRC32 hash (skip zero) : 40F1C15D Statistics Read error : 0 Skipped (treated as error) : 0 Edge jitter error (maybe fixed) : 0 Atom jitter error (maybe fixed) : 0 Drift error (maybe fixed) : 0 Dropped bytes error (maybe fixed) : 0 Duplicated bytes error (maybe fixed) : 0 Inconsistency in error sectors : 0

No errors occurred

End of status report
 
TITLE "Jazz Masters 1"PERFORMER "Louis Armstrong"CATALOG 0731451981821FILE "CDImage.wav" WAVE TRACK 01 AUDIO TITLE "Just One of Those Things" INDEX 00 00:00:00 INDEX 01 00:00:32 TRACK 02 AUDIO TITLE "That Old Feeling" INDEX 00 04:03:17 INDEX 01 04:05:50 TRACK 03 AUDIO TITLE "I Got a Right to Sing the Blues" INDEX 00 06:48:37 INDEX 01 06:49:70 TRACK 04 AUDIO TITLE "Learnin' the Blues" INDEX 00 10:45:02 INDEX 01 10:46:27 TRACK 05 AUDIO TITLE "Let's Do it (let's Fall in Love)" INDEX 01 17:58:37 TRACK 06 AUDIO TITLE "There's a Boat Dat's Leavin' Soon for New York" INDEX 00 26:41:05 INDEX 01 26:44:05 TRACK 07 AUDIO TITLE "Blues in the Night" INDEX 00 31:35:32 INDEX 01 31:37:05 TRACK 08 AUDIO TITLE "You're the Top" INDEX 00 36:48:17 INDEX 01 36:49:57 TRACK 09 AUDIO TITLE "Body and Soul" INDEX 00 39:20:37 INDEX 01 39:21:72 TRACK 10 AUDIO TITLE "When Your Lover Has Gone" INDEX 00 44:03:43 INDEX 01 44:05:40 TRACK 11 AUDIO TITLE "A Fine Romance" INDEX 00 48:43:22 INDEX 01 48:43:70 TRACK 12 AUDIO TITLE "Home" INDEX 00 52:35:03 INDEX 01 52:37:47 TRACK 13 AUDIO TITLE "I've Got the World on String" INDEX 00 58:25:42 INDEX 01 58:28:05 TRACK 14 AUDIO TITLE "I Was Doing All Right" INDEX 00 61:17:31 INDEX 01 61:18:47 TRACK 15 AUDIO TITLE "When the Saints Go Machin' in" INDEX 00 64:38:47 INDEX 01 64:39:10


Трекер:  [ 05-Фев-2012 15:46 ]

  

Скачать .torrent

Размер .torrent файла 8 KB


Размер: 330 MB
Хэш (hash) релиза: 29593b47c08f524076f3696fecf7581f02919df1

Еще никто не оставлял запись к записи скачать торрент Louis Armstrong — Verve Jazz Masters 1 — 1993, FLAC . Будь первым!

!Обратная связь