Скачать через торрент музыку Duke Ellington - 70th Birthday Concert бесплатно без регистрации torrent

Если у вас наблюдаются проблемы со скриншотами, переходом по ссылками, скачиванием торрентов - проблемы в блокировщике рекламы AdBlock. #хорошегоДня!


Статистика раздачи
Размер:  553 MB   |    Зарегистрирован:  5 лет 8 месяцев   |    .torrent скачан:  27 раз   |   
Раздают:  1  
   
Загрузка...
 
Автор Сообщение

Galfimbul

avatar Galfimbul


Duke Ellington - 70th Birthday Concert (2CD)

Жанр: Swing, Big Band
Страна-производитель диска: Россия
Год издания диска: 1999
Издатель (лейбл): Ars Nova
Аудиокодек: APE (*.ape)
Тип рипа: image+.cue
Битрейт аудио: lossless
Продолжительность: 01:35:42
Источник (релизер): Рип с дисков.
Наличие сканов в содержимом раздачи: да
[b]Треклист[/b]:
1. Rockin' In Rhythm
2. B.P.
3. Take The A Train
4. Tootie For Cootie
5. 4:30 Blues
6. El Gato
7. Black Butterfly
8. Things Ain't What They Used To Be
9. Laying On Mellow
Exact Audio Copy V1.0 beta 3 from 29. August 2011

Отчёт EAC об извлечении, выполненном 10. ноября 2011, 17:20

Duke Ellington / 70th Birthday Concert (CD1)

Дисковод: Optiarc DVD RW AD-5200A Adapter: 0 ID: 1

Режим чтения : Достоверность
Использование точного потока : Да
Отключение кэша аудио : Да
Использование указателей C2 : Нет

Коррекция смещения при чтении : 48
Способность читать области Lead-in и Lead-out : Нет
Заполнение пропущенных сэмплов тишиной : Да
Удаление блоков с тишиной в начале и конце : Нет
При вычислениях CRC использовались нулевые сэмплы : Да
Интерфейс : Установленный внешний ASPI-интерфейс

Выходной формат : Пользовательский кодировщик
Выбранный битрейт : 128 kBit/s
Качество : Высокий
Добавление ID3-тега : Нет
Утилита сжатия : C:\Program Files\Monkey's Audio\MAC.exe
Дополнительные параметры : %source% %dest% -c3000

TOC извлечённого CD

Трек | Старт | Длительность | Начальный сектор | Конечный сектор
---------------------------------------------------------------------
1 | 0:00.00 | 5:53.62 | 0 | 26536
2 | 5:53.62 | 4:41.70 | 26537 | 47681
3 | 10:35.57 | 5:48.03 | 47682 | 73784
4 | 16:23.60 | 6:27.00 | 73785 | 102809
5 | 22:50.60 | 4:21.35 | 102810 | 122419
6 | 27:12.20 | 4:22.32 | 122420 | 142101
7 | 31:34.52 | 4:46.70 | 142102 | 163621
8 | 36:21.47 | 3:02.03 | 163622 | 177274
9 | 39:23.50 | 5:04.47 | 177275 | 200121

Характеристики диапазона извлечения и сообщения об ошибках

Выбранный диапазон

Имя файла E:\На трекер\1999.Duke Ellington - 70th Birthday Concert (2CD)\CD1\Duke Ellington - 70th Birthday Concert (CD1).wav

Пиковый уровень 100.0 %
Скорость извлечения 3.3 X
Качество диапазона 99.9 %
CRC теста EC8E3FAD
CRC копии EC8E3FAD
Копирование... OK

Ошибок не произошло

AccurateRip: сводка

Трек 1 точность не определена (достоверность 3) [AFD6396F], AccurateRip вернул [6FB45334] (AR v2)
Трек 2 точность не определена (достоверность 3) [93F0B516], AccurateRip вернул [752EB1E9] (AR v2)
Трек 3 точность не определена (достоверность 2) [DE541093], AccurateRip вернул [F12DFAC6] (AR v2)
Трек 4 точность не определена (достоверность 3) [48D431A2], AccurateRip вернул [DE707DBB] (AR v2)
Трек 5 точность не определена (достоверность 3) [75DADFED], AccurateRip вернул [637FE5A9] (AR v2)
Трек 6 точность не определена (достоверность 3) [E695EAC4], AccurateRip вернул [4DD36F92] (AR v2)
Трек 7 точность не определена (достоверность 3) [57156C67], AccurateRip вернул [84184E15] (AR v2)
Трек 8 точность не определена (достоверность 3) [490238B3], AccurateRip вернул [51B0A9D1] (AR v2)
Трек 9 точность не определена (достоверность 3) [D7D20A8F], AccurateRip вернул [BB8C83B8] (AR v2)

Ни один трек не прошёл проверки на точность
В вашей базе может быть иной вариант штамповки диска

Конец отчёта

==== Контрольная сумма отчёта D7593F66A5E53B0BA23359F5B903D933A8C35B265458EE58485F402C30CDDA11 ====
REM GENRE Jazz
REM DATE 1999
REM DISCID 860A6C09
REM COMMENT "ExactAudioCopy v1.0b3"
PERFORMER "Duke Ellington"
TITLE "70th Birthday Concert (CD1)"
FILE "Duke Ellington - 70th Birthday Concert (CD1).ape" WAVE
TRACK 01 AUDIO
TITLE "Rockin' In Rhythm"
PERFORMER "Duke Ellington"
INDEX 01 00:00:00
TRACK 02 AUDIO
TITLE "B.P."
PERFORMER "Duke Ellington"
INDEX 01 05:53:62
TRACK 03 AUDIO
TITLE "Take The A Train"
PERFORMER "Duke Ellington"
INDEX 01 10:35:57
TRACK 04 AUDIO
TITLE "Tootie For Cootie"
PERFORMER "Duke Ellington"
INDEX 01 16:23:60
TRACK 05 AUDIO
TITLE "4:30 Blues"
PERFORMER "Duke Ellington"
INDEX 01 22:50:60
TRACK 06 AUDIO
TITLE "El Gato"
PERFORMER "Duke Ellington"
INDEX 01 27:12:20
TRACK 07 AUDIO
TITLE "Black Butterfly"
PERFORMER "Duke Ellington"
INDEX 01 31:34:52
TRACK 08 AUDIO
TITLE "Things Ain't What They Used To Be"
PERFORMER "Duke Ellington"
INDEX 01 36:21:47
TRACK 09 AUDIO
TITLE "Laying On Mellow"
PERFORMER "Duke Ellington"
INDEX 01 39:23:50
[b][b]Треклист[/b]:[b]
1. Satin Doll
2. Azure
3. In Triplicate
4. Perdido
5. Fifi
6. Medley
7. Black Swan
8. Final Ellington Speech
Exact Audio Copy V1.0 beta 3 from 29. August 2011

Отчёт EAC об извлечении, выполненном 10. ноября 2011, 18:17

Duke Ellington / 70th Birthday Concert (CD2)

Дисковод: Optiarc DVD RW AD-5200A Adapter: 0 ID: 1

Режим чтения : Достоверность
Использование точного потока : Да
Отключение кэша аудио : Да
Использование указателей C2 : Нет

Коррекция смещения при чтении : 48
Способность читать области Lead-in и Lead-out : Нет
Заполнение пропущенных сэмплов тишиной : Да
Удаление блоков с тишиной в начале и конце : Нет
При вычислениях CRC использовались нулевые сэмплы : Да
Интерфейс : Установленный внешний ASPI-интерфейс

Выходной формат : Пользовательский кодировщик
Выбранный битрейт : 128 kBit/s
Качество : Высокий
Добавление ID3-тега : Нет
Утилита сжатия : C:\Program Files\Monkey's Audio\MAC.exe
Дополнительные параметры : %source% %dest% -c3000

TOC извлечённого CD

Трек | Старт | Длительность | Начальный сектор | Конечный сектор
---------------------------------------------------------------------
1 | 0:00.00 | 5:37.10 | 0 | 25284
2 | 5:37.10 | 4:57.12 | 25285 | 47571
3 | 10:34.22 | 6:55.60 | 47572 | 78756
4 | 17:30.07 | 3:22.18 | 78757 | 93924
5 | 20:52.25 | 3:41.60 | 93925 | 110559
6 | 24:34.10 | 15:11.30 | 110560 | 178914
7 | 39:45.40 | 9:23.07 | 178915 | 221146
8 | 49:08.47 | 2:05.20 | 221147 | 230541

Характеристики диапазона извлечения и сообщения об ошибках

Выбранный диапазон

Имя файла E:\На трекер\1999.Duke Ellington - 70th Birthday Concert (2CD)\CD2\Duke Ellington - 70th Birthday Concert (CD2).wav

Пиковый уровень 100.0 %
Скорость извлечения 3.5 X
Качество диапазона 100.0 %
CRC теста F5F903B6
CRC копии F5F903B6
Копирование... OK

Ошибок не произошло

AccurateRip: сводка

Трек 1 точность не определена (достоверность 3) [F76BC71D], AccurateRip вернул [5A58468B] (AR v2)
Трек 2 точность не определена (достоверность 3) [E77163C9], AccurateRip вернул [FCE3773D] (AR v2)
Трек 3 точность не определена (достоверность 3) [E4AD2886], AccurateRip вернул [E4DA17DA] (AR v2)
Трек 4 точность не определена (достоверность 3) [7F59287A], AccurateRip вернул [9071FD37] (AR v2)
Трек 5 точность не определена (достоверность 2) [B5EE6323], AccurateRip вернул [2B0326CE] (AR v2)
Трек 6 точность не определена (достоверность 3) [2DCB093A], AccurateRip вернул [8C787C91] (AR v2)
Трек 7 точность не определена (достоверность 3) [56ACCC26], AccurateRip вернул [DD0DD986] (AR v2)
Трек 8 точность не определена (достоверность 3) [A443947D], AccurateRip вернул [79C11731] (AR v2)

Ни один трек не прошёл проверки на точность
В вашей базе может быть иной вариант штамповки диска

Конец отчёта

==== Контрольная сумма отчёта 25814CFB5986BCC535A39EADF58BA325CA241F8E151B60DA6319E302205C86F5 ====
REM GENRE Jazz
REM DATE 1999
REM DISCID 6A0C0108
REM COMMENT "ExactAudioCopy v1.0b3"
PERFORMER "Duke Ellington"
TITLE "70th Birthday Concert (CD2)"
FILE "Duke Ellington - 70th Birthday Concert (CD2).ape" WAVE
TRACK 01 AUDIO
TITLE "Satin Doll"
PERFORMER "Duke Ellington"
INDEX 01 00:00:00
TRACK 02 AUDIO
TITLE "Azure"
PERFORMER "Duke Ellington"
INDEX 01 05:37:10
TRACK 03 AUDIO
TITLE "In Triplicate"
PERFORMER "Duke Ellington"
INDEX 01 10:34:22
TRACK 04 AUDIO
TITLE "Perdido"
PERFORMER "Duke Ellington"
INDEX 01 17:30:07
TRACK 05 AUDIO
TITLE "Fifi"
PERFORMER "Duke Ellington"
INDEX 01 20:52:25
TRACK 06 AUDIO
TITLE "Medley"
PERFORMER "Duke Ellington"
INDEX 01 24:34:10
INDEX 02 26:15:17
INDEX 03 26:35:57
INDEX 04 27:24:72
INDEX 05 29:01:05
INDEX 06 32:15:02
INDEX 07 32:53:67
INDEX 08 34:46:67
INDEX 09 37:47:65
TRACK 07 AUDIO
TITLE "Black Swan"
PERFORMER "Duke Ellington"
INDEX 01 39:45:40
TRACK 08 AUDIO
TITLE "Final Ellington Speech"
PERFORMER "Duke Ellington"
INDEX 01 49:08:47


Трекер:  [ 05-Фев-2012 15:46 ]

  

Скачать .torrent

Размер .torrent файла 12 KB


Размер: 553 MB
Хэш (hash) релиза: 62a7b02052534e9d83d0525fdd598438d8c7942f

Еще никто не оставлял запись к записи скачать торрент Duke Ellington - 70th Birthday Concert . Будь первым!

!Обратная связь