Скачать через торрент музыку Benny Carter — A Gentleman And His Music бесплатно без регистрации torrent

Если у вас наблюдаются проблемы со скриншотами, переходом по ссылками, скачиванием торрентов - проблемы в блокировщике рекламы AdBlock. #хорошегоДня!


Статистика раздачи
Размер:  282 MB   |    Зарегистрирован:  5 лет 8 месяцев   |    .torrent скачан:  31 раз   |   
Раздают:  1  
   
Загрузка...
 
Автор Сообщение

Galfimbul

avatar Galfimbul


Benny Carter — A Gentleman And His Music (1985)

Жанр: Jump Blues
Год выпуска диска: 1992
Производитель диска: Concord Jazz
Аудио кодек: FLAC
Тип рипа: image+.cue
Битрейт аудио: lossless
Продолжительность: 47:55

Трэклист:
01. Sometimes I'm Happy (7:44)
02. A Kiss From You (6:22)
03. Blues For George (8:15)
04. Things Ain't What They Used To Be (9:57)
05. Lover Man (7:34)
06. Idaho (8:04)

Источник: найдено в сети
 
Exact Audio Copy V0.99 prebeta 4 from 23. January 2008

EAC extraction logfile from 17. November 2008, 12:02

Benny Carter / A Gentleman And His Music

Used drive : PLEXTOR CD-R PREMIUM2 Adapter: 1 ID: 1

Read mode : SecureUtilize accurate stream : YesDefeat audio cache : YesMake use of C2 pointers : No

Read offset correction : 30Overread into Lead-In and Lead-Out : NoFill up missing offset samples with silence : YesDelete leading and trailing silent blocks : NoNull samples used in CRC calculations : YesUsed interface : Installed external ASPI interface

Used output format : Internal WAV RoutinesSample format : 44.100 Hz; 16 Bit; Stereo

TOC of the extracted CD

Track | Start | Length | Start sector | End sector --------------------------------------------------------- 1 | 0:00.00 | 7:44.27 | 0 | 34826 2 | 7:44.27 | 6:21.50 | 34827 | 63451 3 | 14:06.02 | 8:15.28 | 63452 | 100604 4 | 22:21.30 | 9:56.47 | 100605 | 145351 5 | 32:18.02 | 7:33.45 | 145352 | 179371 6 | 39:51.47 | 8:03.48 | 179372 | 215644

Range status and errors

Selected range

Filename D:\Shared\Benny Carter - A Gentleman And His Music (1985) [FLAC]\CDImage.wav

Peak level 100.0 % Range quality 100.0 % Test CRC BF4FF060 Copy CRC BF4FF060 Copy OK

No errors occurred

AccurateRip summary

Track 1 not present in databaseTrack 2 accurately ripped (confidence 2) [8CA24FDD]Track 3 accurately ripped (confidence 2) [7DF7B0FB]Track 4 accurately ripped (confidence 2) [B7B1C2DA]Track 5 not present in databaseTrack 6 not present in database

3 track(s) accurately ripped 3 track(s) not present in the AccurateRip database

Some tracks could not be verified as accurate

End of status report


Трекер:  [ 05-Фев-2012 15:45 ]

  

Скачать .torrent

Размер .torrent файла 4 KB


Размер: 282 MB
Хэш (hash) релиза: d38365a9175242e8134e06fdf9d51396b7339eee

Еще никто не оставлял запись к записи скачать торрент Benny Carter — A Gentleman And His Music . Будь первым!

!Обратная связь