Скачать через торрент музыку Django Reinhardt — Djangologie 1928-1950 бесплатно без регистрации torrent

Если у вас наблюдаются проблемы со скриншотами, переходом по ссылками, скачиванием торрентов - проблемы в блокировщике рекламы AdBlock. #хорошегоДня!


Статистика раздачи
Размер:  3.43 GB   |    Зарегистрирован:  5 лет 8 месяцев   |    .torrent скачан:  43 раза   |   
Раздают:  1  
   
Загрузка...
 
Автор Сообщение

Galfimbul

avatar Galfimbul


Django Reinhardt — Djangologie 1928-1950 (Box Set 20 CD)



Жанр: Gypsy
Год издания диска: 2009
Издатель (лейбл): EMI
Bar code: 5099960605023
Аудиокодек: FLAC (*.flac)
Тип рипа: tracks+.cue
Битрейт аудио: lossless
Продолжительность: под спойлерами
Источник: вата
Наличие сканов в содержимом раздачи: да 
 
 
Продолжительность: 40:35

Треклист:
01. Griserie (2:47)
02. Carinosa (2:57)
03. Si J'aime Suzy (2:22)
04. Presentation Stomp (3:06)
05. Blue Moon (3:14)
06. Avalon (3:02)
07. What A Difference A Day Made (3:19)
08. Stardust (2:34)
09. Rosetta (2:42)
10. Stardust (2:34)
11. The Object Of My Affection (2:49)
12. I'se Muggin' (3:08)
13. I Can't Give You Anything But Love (3:23)
14. Oriental Shuffle (2:38)
 
Exact Audio Copy V1.0 beta 2 from 29. April 2011

EAC extraction logfile from 25. June 2011, 17:44

Django Reinhardt / Djangologie 1928-1950 (Disc 01)

Used drive : Optiarc DVD-ROM DDU1675S Adapter: 3 ID: 0

Read mode : SecureUtilize accurate stream : YesDefeat audio cache : YesMake use of C2 pointers : No

Read offset correction : 6Overread into Lead-In and Lead-Out : NoFill up missing offset samples with silence : YesDelete leading and trailing silent blocks : NoNull samples used in CRC calculations : YesUsed interface : Installed external ASPI interfaceGap handling : Appended to previous track

Used output format : User Defined EncoderSelected bitrate : 896 kBit/sQuality : HighAdd ID3 tag : NoCommand line compressor : C:\Programme\Exact Audio Copy\FLAC\FLAC.EXEAdditional command line options : -6 -V -T "ARTIST=%artist%" -T "TITLE=%title%" -T "ALBUM=%albumtitle%" -T "DATE=%year%" -T "TRACKNUMBER=%tracknr%" -T "GENRE=%genre%" -T "COMMENT=%comment%" %hascover%--picture="%coverfile%"%hascover% %source% -o %dest%

TOC of the extracted CD

Track | Start | Length | Start sector | End sector --------------------------------------------------------- 1 | 0:00.00 | 2:46.71 | 0 | 12520 2 | 2:46.71 | 2:57.29 | 12521 | 25824 3 | 5:44.25 | 2:22.24 | 25825 | 36498 4 | 8:06.49 | 3:06.21 | 36499 | 50469 5 | 11:12.70 | 3:13.60 | 50470 | 65004 6 | 14:26.55 | 3:01.38 | 65005 | 78617 7 | 17:28.18 | 3:18.46 | 78618 | 93513 8 | 20:46.64 | 2:33.72 | 93514 | 105060 9 | 23:20.61 | 2:41.68 | 105061 | 117203 10 | 26:02.54 | 2:33.72 | 117204 | 128750 11 | 28:36.51 | 2:48.45 | 128751 | 141395 12 | 31:25.21 | 3:08.10 | 141396 | 155505 13 | 34:33.31 | 3:23.29 | 155506 | 170759 14 | 37:56.60 | 2:37.72 | 170760 | 182606

Track 1

Filename J:\Ongaku\Classical\Django Reinhardt\[FLAC] [2009.11.27] Djangologie 1928-1950\Disc 01 - 1928~1936\01 - Griserie.wav

Pre-gap length 0:00:02.00

Peak level 98.8 % Extraction speed 2.0 X Track quality 99.9 % Test CRC E6C58E7B Copy CRC E6C58E7B Accurately ripped (confidence 1) [2CE47A19] (AR v1) Copy OK

Track 2

Filename J:\Ongaku\Classical\Django Reinhardt\[FLAC] [2009.11.27] Djangologie 1928-1950\Disc 01 - 1928~1936\02 - Carinosa.wav

Pre-gap length 0:00:01.74

Peak level 98.8 % Extraction speed 2.6 X Track quality 100.0 % Test CRC 817E53A8 Copy CRC 817E53A8 Accurately ripped (confidence 1) [3822F261] (AR v1) Copy OK

Track 3

Filename J:\Ongaku\Classical\Django Reinhardt\[FLAC] [2009.11.27] Djangologie 1928-1950\Disc 01 - 1928~1936\03 - Si J'aime Suzy.wav

Pre-gap length 0:00:02.00

Peak level 98.8 % Extraction speed 2.6 X Track quality 100.0 % Test CRC CACC3C6E Copy CRC CACC3C6E Accurately ripped (confidence 1) [F93D072C] (AR v1) Copy OK

Track 4

Filename J:\Ongaku\Classical\Django Reinhardt\[FLAC] [2009.11.27] Djangologie 1928-1950\Disc 01 - 1928~1936\04 - Presentation Stomp.wav

Pre-gap length 0:00:02.00

Peak level 98.8 % Extraction speed 2.6 X Track quality 99.9 % Test CRC 84158410 Copy CRC 84158410 Accurately ripped (confidence 1) [415210B7] (AR v1) Copy OK

Track 5

Filename J:\Ongaku\Classical\Django Reinhardt\[FLAC] [2009.11.27] Djangologie 1928-1950\Disc 01 - 1928~1936\05 - Blue Moon.wav

Pre-gap length 0:00:02.00

Peak level 98.8 % Extraction speed 3.1 X Track quality 100.0 % Test CRC 2AFDD774 Copy CRC 2AFDD774 Accurately ripped (confidence 1) [AD8C9439] (AR v1) Copy OK

Track 6

Filename J:\Ongaku\Classical\Django Reinhardt\[FLAC] [2009.11.27] Djangologie 1928-1950\Disc 01 - 1928~1936\06 - Avalon.wav

Pre-gap length 0:00:02.00

Peak level 98.8 % Extraction speed 3.3 X Track quality 100.0 % Test CRC FA445638 Copy CRC FA445638 Accurately ripped (confidence 1) [209CF9D8] (AR v1) Copy OK

Track 7

Filename J:\Ongaku\Classical\Django Reinhardt\[FLAC] [2009.11.27] Djangologie 1928-1950\Disc 01 - 1928~1936\07 - What A Difference A Day Made.wav

Pre-gap length 0:00:02.00

Peak level 98.8 % Extraction speed 3.5 X Track quality 100.0 % Test CRC B66FEE96 Copy CRC B66FEE96 Accurately ripped (confidence 1) [EDCAD44E] (AR v1) Copy OK

Track 8

Filename J:\Ongaku\Classical\Django Reinhardt\[FLAC] [2009.11.27] Djangologie 1928-1950\Disc 01 - 1928~1936\08 - Stardust.wav

Pre-gap length 0:00:02.00

Peak level 99.1 % Extraction speed 3.4 X Track quality 100.0 % Test CRC 6FC02C26 Copy CRC 6FC02C26 Accurately ripped (confidence 1) [5DCB6495] (AR v1) Copy OK

Track 9

Filename J:\Ongaku\Classical\Django Reinhardt\[FLAC] [2009.11.27] Djangologie 1928-1950\Disc 01 - 1928~1936\09 - Rosetta.wav

Pre-gap length 0:00:02.00

Peak level 99.2 % Extraction speed 3.6 X Track quality 100.0 % Test CRC 6AD396D9 Copy CRC 6AD396D9 Accurately ripped (confidence 1) [9B95673E] (AR v1) Copy OK

Track 10

Filename J:\Ongaku\Classical\Django Reinhardt\[FLAC] [2009.11.27] Djangologie 1928-1950\Disc 01 - 1928~1936\10 - Stardust.wav

Pre-gap length 0:00:02.00

Peak level 99.1 % Extraction speed 3.6 X Track quality 100.0 % Test CRC 6FC02C26 Copy CRC 6FC02C26 Accurately ripped (confidence 1) [5DCB6495] (AR v1) Copy OK

Track 11

Filename J:\Ongaku\Classical\Django Reinhardt\[FLAC] [2009.11.27] Djangologie 1928-1950\Disc 01 - 1928~1936\11 - The Object Of My Affection.wav

Pre-gap length 0:00:02.00

Peak level 99.1 % Extraction speed 3.8 X Track quality 100.0 % Test CRC 0DC5EE11 Copy CRC 0DC5EE11 Accurately ripped (confidence 1) [CAF3DD80] (AR v1) Copy OK

Track 12

Filename J:\Ongaku\Classical\Django Reinhardt\[FLAC] [2009.11.27] Djangologie 1928-1950\Disc 01 - 1928~1936\12 - I'se Muggin'.wav

Pre-gap length 0:00:02.00

Peak level 99.1 % Extraction speed 4.0 X Track quality 100.0 % Test CRC 59CF03F0 Copy CRC 59CF03F0 Accurately ripped (confidence 1) [AC2283C9] (AR v1) Copy OK

Track 13

Filename J:\Ongaku\Classical\Django Reinhardt\[FLAC] [2009.11.27] Djangologie 1928-1950\Disc 01 - 1928~1936\13 - I Can't Give You Anything But Love.wav

Pre-gap length 0:00:02.00

Peak level 99.1 % Extraction speed 4.2 X Track quality 100.0 % Test CRC BA938859 Copy CRC BA938859 Accurately ripped (confidence 1) [85109973] (AR v1) Copy OK

Track 14

Filename J:\Ongaku\Classical\Django Reinhardt\[FLAC] [2009.11.27] Djangologie 1928-1950\Disc 01 - 1928~1936\14 - Oriental Shuffle.wav

Pre-gap length 0:00:02.00

Peak level 99.1 % Extraction speed 4.1 X Track quality 100.0 % Test CRC D2EC1BA0 Copy CRC D2EC1BA0 Accurately ripped (confidence 1) [D7FE6B8C] (AR v1) Copy OK

All tracks accurately ripped

No errors occurred

End of status report

---- CUETools DB Plugin V2.1.2

[CTDB TOCID: L329c5LRpgzgFGKam1tvm1G5VeY-] found, Submit result: L329c5LRpgzgFGKam1tvm1G5VeY- has been confirmed[f7752cd7] (2/2) Accurately ripped
 
REM GENRE "Gypsy Jazz"REM DATE 2009REM DISCID CF09820EREM COMMENT "ExactAudioCopy v1.0b2"PERFORMER "Django Reinhardt"TITLE "Djangologie 1928-1950 (Disc 01)"FILE "01 - Griserie.wav" WAVE TRACK 01 AUDIO TITLE "Griserie" PERFORMER "Django Reinhardt" INDEX 01 00:00:00 TRACK 02 AUDIO TITLE "Carinosa" PERFORMER "Django Reinhardt" INDEX 00 02:44:72FILE "02 - Carinosa.wav" WAVE INDEX 01 00:00:00 TRACK 03 AUDIO TITLE "Si J'aime Suzy" PERFORMER "Django Reinhardt" INDEX 00 02:55:29FILE "03 - Si J'aime Suzy.wav" WAVE INDEX 01 00:00:00 TRACK 04 AUDIO TITLE "Presentation Stomp" PERFORMER "Django Reinhardt" INDEX 00 02:20:24FILE "04 - Presentation Stomp.wav" WAVE INDEX 01 00:00:00 TRACK 05 AUDIO TITLE "Blue Moon" PERFORMER "Django Reinhardt" INDEX 00 03:04:21FILE "05 - Blue Moon.wav" WAVE INDEX 01 00:00:00 TRACK 06 AUDIO TITLE "Avalon" PERFORMER "Django Reinhardt" INDEX 00 03:11:60FILE "06 - Avalon.wav" WAVE INDEX 01 00:00:00 TRACK 07 AUDIO TITLE "What A Difference A Day Made" PERFORMER "Django Reinhardt" INDEX 00 02:59:38FILE "07 - What A Difference A Day Made.wav" WAVE INDEX 01 00:00:00 TRACK 08 AUDIO TITLE "Stardust" PERFORMER "Django Reinhardt" INDEX 00 03:16:46FILE "08 - Stardust.wav" WAVE INDEX 01 00:00:00 TRACK 09 AUDIO TITLE "Rosetta" PERFORMER "Django Reinhardt" INDEX 00 02:31:72FILE "09 - Rosetta.wav" WAVE INDEX 01 00:00:00 TRACK 10 AUDIO TITLE "Stardust" PERFORMER "Django Reinhardt" INDEX 00 02:39:68FILE "10 - Stardust.wav" WAVE INDEX 01 00:00:00 TRACK 11 AUDIO TITLE "The Object Of My Affection" PERFORMER "Django Reinhardt" INDEX 00 02:31:72FILE "11 - The Object Of My Affection.wav" WAVE INDEX 01 00:00:00 TRACK 12 AUDIO TITLE "I'se Muggin'" PERFORMER "Django Reinhardt" INDEX 00 02:46:45FILE "12 - I'se Muggin'.wav" WAVE INDEX 01 00:00:00 TRACK 13 AUDIO TITLE "I Can't Give You Anything But Love" PERFORMER "Django Reinhardt" INDEX 00 03:06:10FILE "13 - I Can't Give You Anything But Love.wav" WAVE INDEX 01 00:00:00 TRACK 14 AUDIO TITLE "Oriental Shuffle" PERFORMER "Django Reinhardt" INDEX 00 03:21:29FILE "14 - Oriental Shuffle.wav" WAVE INDEX 01 00:00:00
Продолжительность: 40:15

Треклист:
01. After You Gone (3:07)
02. Are You In The Mood (2:50)
03. Limehouse Blues (2:47)
04. Nagasaki (2:51)
05. Swing Guitars (2:27)
06. Georgia On My Mind (3:15)
07. Shine (2:57)
08. In The Still Of The Night (3:06)
09. Sweet Chorus (2:46)
10. Exactly Like You (2:31)
11. Charleston (2:54)
12. You're Driving Me Crazy (2:56)
13. Tears (2:39)
14. Solitude (3:08)
 
Exact Audio Copy V1.0 beta 2 from 29. April 2011

EAC extraction logfile from 25. June 2011, 19:06

Django Reinhardt / Djangologie 1928-1950 (Disc 02)

Used drive : Optiarc DVD-ROM DDU1675S Adapter: 3 ID: 0

Read mode : SecureUtilize accurate stream : YesDefeat audio cache : YesMake use of C2 pointers : No

Read offset correction : 6Overread into Lead-In and Lead-Out : NoFill up missing offset samples with silence : YesDelete leading and trailing silent blocks : NoNull samples used in CRC calculations : YesUsed interface : Installed external ASPI interfaceGap handling : Appended to previous track

Used output format : User Defined EncoderSelected bitrate : 896 kBit/sQuality : HighAdd ID3 tag : NoCommand line compressor : C:\Programme\Exact Audio Copy\FLAC\FLAC.EXEAdditional command line options : -6 -V -T "ARTIST=%artist%" -T "TITLE=%title%" -T "ALBUM=%albumtitle%" -T "DATE=%year%" -T "TRACKNUMBER=%tracknr%" -T "GENRE=%genre%" -T "COMMENT=%comment%" %hascover%--picture="%coverfile%"%hascover% %source% -o %dest%

TOC of the extracted CD

Track | Start | Length | Start sector | End sector --------------------------------------------------------- 1 | 0:00.00 | 3:07.10 | 0 | 14034 2 | 3:07.10 | 2:49.70 | 14035 | 26779 3 | 5:57.05 | 2:47.03 | 26780 | 39307 4 | 8:44.08 | 2:50.58 | 39308 | 52115 5 | 11:34.66 | 2:26.50 | 52116 | 63115 6 | 14:01.41 | 3:15.11 | 63116 | 77751 7 | 17:16.52 | 2:57.12 | 77752 | 91038 8 | 20:13.64 | 3:06.35 | 91039 | 105023 9 | 23:20.24 | 2:46.06 | 105024 | 117479 10 | 26:06.30 | 2:31.26 | 117480 | 128830 11 | 28:37.56 | 2:53.58 | 128831 | 141863 12 | 31:31.39 | 2:55.70 | 141864 | 155058 13 | 34:27.34 | 2:39.26 | 155059 | 167009 14 | 37:06.60 | 3:08.19 | 167010 | 181128

Track 1

Filename J:\Ongaku\Classical\Django Reinhardt\[FLAC] [2009.11.27] Djangologie 1928-1950\Disc 02 - 1936~1937\01 - After You Gone.wav

Pre-gap length 0:00:02.00

Peak level 99.1 % Extraction speed 2.4 X Track quality 100.0 % Test CRC 02B5B268 Copy CRC 02B5B268 Track not present in AccurateRip database Copy OK

Track 2

Filename J:\Ongaku\Classical\Django Reinhardt\[FLAC] [2009.11.27] Djangologie 1928-1950\Disc 02 - 1936~1937\02 - Are You In The Mood.wav

Pre-gap length 0:00:02.00

Peak level 99.1 % Extraction speed 2.6 X Track quality 100.0 % Test CRC 68E3AEA1 Copy CRC 68E3AEA1 Track not present in AccurateRip database Copy OK

Track 3

Filename J:\Ongaku\Classical\Django Reinhardt\[FLAC] [2009.11.27] Djangologie 1928-1950\Disc 02 - 1936~1937\03 - Limehouse Blues.wav

Pre-gap length 0:00:02.00

Peak level 99.1 % Extraction speed 2.8 X Track quality 100.0 % Test CRC 40F1F5BB Copy CRC 40F1F5BB Track not present in AccurateRip database Copy OK

Track 4

Filename J:\Ongaku\Classical\Django Reinhardt\[FLAC] [2009.11.27] Djangologie 1928-1950\Disc 02 - 1936~1937\04 - Nagasaki.wav

Pre-gap length 0:00:02.00

Peak level 98.8 % Extraction speed 3.0 X Track quality 100.0 % Test CRC EBC06153 Copy CRC EBC06153 Track not present in AccurateRip database Copy OK

Track 5

Filename J:\Ongaku\Classical\Django Reinhardt\[FLAC] [2009.11.27] Djangologie 1928-1950\Disc 02 - 1936~1937\05 - Swing Guitars.wav

Pre-gap length 0:00:02.00

Peak level 98.8 % Extraction speed 3.0 X Track quality 100.0 % Test CRC 5C422887 Copy CRC 5C422887 Track not present in AccurateRip database Copy OK

Track 6

Filename J:\Ongaku\Classical\Django Reinhardt\[FLAC] [2009.11.27] Djangologie 1928-1950\Disc 02 - 1936~1937\06 - Georgia On My Mind.wav

Pre-gap length 0:00:02.00

Peak level 98.8 % Extraction speed 3.3 X Track quality 100.0 % Test CRC CBE874B5 Copy CRC CBE874B5 Track not present in AccurateRip database Copy OK

Track 7

Filename J:\Ongaku\Classical\Django Reinhardt\[FLAC] [2009.11.27] Djangologie 1928-1950\Disc 02 - 1936~1937\07 - Shine.wav

Pre-gap length 0:00:02.00

Peak level 98.8 % Extraction speed 3.4 X Track quality 100.0 % Test CRC 7EE13785 Copy CRC 7EE13785 Track not present in AccurateRip database Copy OK

Track 8

Filename J:\Ongaku\Classical\Django Reinhardt\[FLAC] [2009.11.27] Djangologie 1928-1950\Disc 02 - 1936~1937\08 - In The Still Of The Night.wav

Pre-gap length 0:00:02.00

Peak level 98.8 % Extraction speed 3.6 X Track quality 100.0 % Test CRC CA3151BB Copy CRC CA3151BB Track not present in AccurateRip database Copy OK

Track 9

Filename J:\Ongaku\Classical\Django Reinhardt\[FLAC] [2009.11.27] Djangologie 1928-1950\Disc 02 - 1936~1937\09 - Sweet Chorus.wav

Pre-gap length 0:00:02.00

Peak level 98.8 % Extraction speed 3.6 X Track quality 100.0 % Test CRC AFD841CD Copy CRC AFD841CD Track not present in AccurateRip database Copy OK

Track 10

Filename J:\Ongaku\Classical\Django Reinhardt\[FLAC] [2009.11.27] Djangologie 1928-1950\Disc 02 - 1936~1937\10 - Exactly Like You.wav

Pre-gap length 0:00:02.00

Peak level 98.8 % Extraction speed 3.6 X Track quality 100.0 % Test CRC CA7B4428 Copy CRC CA7B4428 Track not present in AccurateRip database Copy OK

Track 11

Filename J:\Ongaku\Classical\Django Reinhardt\[FLAC] [2009.11.27] Djangologie 1928-1950\Disc 02 - 1936~1937\11 - Charleston.wav

Pre-gap length 0:00:02.00

Peak level 98.8 % Extraction speed 3.9 X Track quality 100.0 % Test CRC 25D4A35B Copy CRC 25D4A35B Track not present in AccurateRip database Copy OK

Track 12

Filename J:\Ongaku\Classical\Django Reinhardt\[FLAC] [2009.11.27] Djangologie 1928-1950\Disc 02 - 1936~1937\12 - You're Driving Me Crazy.wav

Pre-gap length 0:00:02.00

Peak level 98.8 % Extraction speed 3.4 X Track quality 99.9 % Test CRC 11C4BBB7 Copy CRC 11C4BBB7 Track not present in AccurateRip database Copy OK

Track 13

Filename J:\Ongaku\Classical\Django Reinhardt\[FLAC] [2009.11.27] Djangologie 1928-1950\Disc 02 - 1936~1937\13 - Tears.wav

Pre-gap length 0:00:02.00

Peak level 98.8 % Extraction speed 3.4 X Track quality 99.9 % Test CRC 42E40386 Copy CRC 42E40386 Track not present in AccurateRip database Copy OK

Track 14

Filename J:\Ongaku\Classical\Django Reinhardt\[FLAC] [2009.11.27] Djangologie 1928-1950\Disc 02 - 1936~1937\14 - Solitude.wav

Pre-gap length 0:00:02.00

Peak level 98.8 % Extraction speed 3.6 X Track quality 99.9 % Test CRC E55745E1 Copy CRC E55745E1 Track not present in AccurateRip database Copy OK

None of the tracks are present in the AccurateRip database

No errors occurred

End of status report

---- CUETools DB Plugin V2.1.2

[CTDB TOCID: MPdrkeYk7i8lasziTPyViDR2.fo-] disk not present in database, Submit result: MPdrkeYk7i8lasziTPyViDR2.fo- has been uploaded
 
REM GENRE "Gypsy Jazz"REM DATE 2009REM DISCID CC096F0EREM COMMENT "ExactAudioCopy v1.0b2"PERFORMER "Django Reinhardt"TITLE "Djangologie 1928-1950 (Disc 02)"FILE "01 - After You Gone.wav" WAVE TRACK 01 AUDIO TITLE "After You Gone" PERFORMER "Django Reinhardt" INDEX 01 00:00:00 TRACK 02 AUDIO TITLE "Are You In The Mood" PERFORMER "Django Reinhardt" INDEX 00 03:05:10FILE "02 - Are You In The Mood.wav" WAVE INDEX 01 00:00:00 TRACK 03 AUDIO TITLE "Limehouse Blues" PERFORMER "Django Reinhardt" INDEX 00 02:47:70FILE "03 - Limehouse Blues.wav" WAVE INDEX 01 00:00:00 TRACK 04 AUDIO TITLE "Nagasaki" PERFORMER "Django Reinhardt" INDEX 00 02:45:03FILE "04 - Nagasaki.wav" WAVE INDEX 01 00:00:00 TRACK 05 AUDIO TITLE "Swing Guitars" PERFORMER "Django Reinhardt" INDEX 00 02:48:58FILE "05 - Swing Guitars.wav" WAVE INDEX 01 00:00:00 TRACK 06 AUDIO TITLE "Georgia On My Mind" PERFORMER "Django Reinhardt" INDEX 00 02:24:50FILE "06 - Georgia On My Mind.wav" WAVE INDEX 01 00:00:00 TRACK 07 AUDIO TITLE "Shine" PERFORMER "Django Reinhardt" INDEX 00 03:13:11FILE "07 - Shine.wav" WAVE INDEX 01 00:00:00 TRACK 08 AUDIO TITLE "In The Still Of The Night" PERFORMER "Django Reinhardt" INDEX 00 02:55:12FILE "08 - In The Still Of The Night.wav" WAVE INDEX 01 00:00:00 TRACK 09 AUDIO TITLE "Sweet Chorus" PERFORMER "Django Reinhardt" INDEX 00 03:04:35FILE "09 - Sweet Chorus.wav" WAVE INDEX 01 00:00:00 TRACK 10 AUDIO TITLE "Exactly Like You" PERFORMER "Django Reinhardt" INDEX 00 02:44:06FILE "10 - Exactly Like You.wav" WAVE INDEX 01 00:00:00 TRACK 11 AUDIO TITLE "Charleston" PERFORMER "Django Reinhardt" INDEX 00 02:29:26FILE "11 - Charleston.wav" WAVE INDEX 01 00:00:00 TRACK 12 AUDIO TITLE "You're Driving Me Crazy" PERFORMER "Django Reinhardt" INDEX 00 02:51:58FILE "12 - You're Driving Me Crazy.wav" WAVE INDEX 01 00:00:00 TRACK 13 AUDIO TITLE "Tears" PERFORMER "Django Reinhardt" INDEX 00 02:53:70FILE "13 - Tears.wav" WAVE INDEX 01 00:00:00 TRACK 14 AUDIO TITLE "Solitude" PERFORMER "Django Reinhardt" INDEX 00 02:37:26FILE "14 - Solitude.wav" WAVE INDEX 01 00:00:00
Продолжительность: 42:34

Треклист:
01. Hot Lips (3:05)
02. Ain't Misbehavin (2:54)
03. Rose Room (2:45)
04. Body And Soul (3:27)
05. When Day Is Done (3:13)
06. Runnin' Wild (Course mouvementée) (2:56)
07. Chicago (3:25)
08. Liebestraum, N°3 (3:21)
09. Miss Annabelle Lee (2:49)
10. A Little Love, A Little Kiss (3:19)
11. Mistery Pacific (2:21)
12. In A Sentimental Mood (3:01)
13. The Sheik Of Araby (3:05)
14. Improvisation (2:54)
 
Exact Audio Copy V1.0 beta 2 from 29. April 2011

EAC extraction logfile from 25. June 2011, 19:51

Django Reinhardt / Djangologie 1928-1950 (Disc 03)

Used drive : Optiarc DVD-ROM DDU1675S Adapter: 3 ID: 0

Read mode : SecureUtilize accurate stream : YesDefeat audio cache : YesMake use of C2 pointers : No

Read offset correction : 6Overread into Lead-In and Lead-Out : NoFill up missing offset samples with silence : YesDelete leading and trailing silent blocks : NoNull samples used in CRC calculations : YesUsed interface : Installed external ASPI interfaceGap handling : Appended to previous track

Used output format : User Defined EncoderSelected bitrate : 896 kBit/sQuality : HighAdd ID3 tag : NoCommand line compressor : C:\Programme\Exact Audio Copy\FLAC\FLAC.EXEAdditional command line options : -6 -V -T "ARTIST=%artist%" -T "TITLE=%title%" -T "ALBUM=%albumtitle%" -T "DATE=%year%" -T "TRACKNUMBER=%tracknr%" -T "GENRE=%genre%" -T "COMMENT=%comment%" %hascover%--picture="%coverfile%"%hascover% %source% -o %dest%

TOC of the extracted CD

Track | Start | Length | Start sector | End sector --------------------------------------------------------- 1 | 0:00.00 | 3:04.54 | 0 | 13853 2 | 3:04.54 | 2:53.45 | 13854 | 26873 3 | 5:58.24 | 2:44.57 | 26874 | 39230 4 | 8:43.06 | 3:26.50 | 39231 | 54730 5 | 12:09.56 | 3:12.70 | 54731 | 69200 6 | 15:22.51 | 2:55.42 | 69201 | 82367 7 | 18:18.18 | 3:25.20 | 82368 | 97762 8 | 21:43.38 | 3:20.63 | 97763 | 112825 9 | 25:04.26 | 2:48.57 | 112826 | 125482 10 | 27:53.08 | 3:19.37 | 125483 | 140444 11 | 31:12.45 | 2:20.52 | 140445 | 150996 12 | 33:33.22 | 3:01.37 | 150997 | 164608 13 | 36:34.59 | 3:05.06 | 164609 | 178489 14 | 39:39.65 | 2:54.03 | 178490 | 191542

Track 1

Filename J:\Ongaku\Classical\Django Reinhardt\[FLAC] [2009.11.27] Djangologie 1928-1950\Disc 03 - 1937\01 - Hot Lips.wav

Pre-gap length 0:00:02.00

Peak level 98.8 % Extraction speed 2.4 X Track quality 100.0 % Test CRC F8B0F016 Copy CRC F8B0F016 Track not present in AccurateRip database Copy OK

Track 2

Filename J:\Ongaku\Classical\Django Reinhardt\[FLAC] [2009.11.27] Djangologie 1928-1950\Disc 03 - 1937\02 - Ain't Misbehavin.wav

Pre-gap length 0:00:02.00

Peak level 98.8 % Extraction speed 2.2 X Track quality 99.9 % Test CRC 305C5FA6 Copy CRC 305C5FA6 Track not present in AccurateRip database Copy OK

Track 3

Filename J:\Ongaku\Classical\Django Reinhardt\[FLAC] [2009.11.27] Djangologie 1928-1950\Disc 03 - 1937\03 - Rose Room.wav

Pre-gap length 0:00:02.00

Peak level 98.8 % Extraction speed 2.8 X Track quality 100.0 % Test CRC 840C4386 Copy CRC 840C4386 Track not present in AccurateRip database Copy OK

Track 4

Filename J:\Ongaku\Classical\Django Reinhardt\[FLAC] [2009.11.27] Djangologie 1928-1950\Disc 03 - 1937\04 - Body And Soul.wav

Pre-gap length 0:00:02.00

Peak level 98.8 % Extraction speed 3.0 X Track quality 100.0 % Test CRC FB7721BF Copy CRC FB7721BF Track not present in AccurateRip database Copy OK

Track 5

Filename J:\Ongaku\Classical\Django Reinhardt\[FLAC] [2009.11.27] Djangologie 1928-1950\Disc 03 - 1937\05 - When Day Is Done.wav

Pre-gap length 0:00:02.00

Peak level 98.8 % Extraction speed 3.2 X Track quality 100.0 % Test CRC B9153164 Copy CRC B9153164 Track not present in AccurateRip database Copy OK

Track 6

Filename J:\Ongaku\Classical\Django Reinhardt\[FLAC] [2009.11.27] Djangologie 1928-1950\Disc 03 - 1937\06 - Runnin' Wild (Course mouvementée).wav

Pre-gap length 0:00:02.00

Peak level 98.8 % Extraction speed 3.3 X Track quality 100.0 % Test CRC 96CBC642 Copy CRC 96CBC642 Track not present in AccurateRip database Copy OK

Track 7

Filename J:\Ongaku\Classical\Django Reinhardt\[FLAC] [2009.11.27] Djangologie 1928-1950\Disc 03 - 1937\07 - Chicago.wav

Pre-gap length 0:00:02.00

Peak level 98.8 % Extraction speed 3.6 X Track quality 100.0 % Test CRC 57990955 Copy CRC 57990955 Track not present in AccurateRip database Copy OK

Track 8

Filename J:\Ongaku\Classical\Django Reinhardt\[FLAC] [2009.11.27] Djangologie 1928-1950\Disc 03 - 1937\08 - Liebestraum, N°3.wav

Pre-gap length 0:00:02.00

Peak level 98.8 % Extraction speed 3.2 X Track quality 99.9 % Test CRC DAF8134A Copy CRC DAF8134A Track not present in AccurateRip database Copy OK

Track 9

Filename J:\Ongaku\Classical\Django Reinhardt\[FLAC] [2009.11.27] Djangologie 1928-1950\Disc 03 - 1937\09 - Miss Annabelle Lee.wav

Pre-gap length 0:00:02.00

Peak level 98.8 % Extraction speed 3.7 X Track quality 100.0 % Test CRC 1762CFF5 Copy CRC 1762CFF5 Track not present in AccurateRip database Copy OK

Track 10

Filename J:\Ongaku\Classical\Django Reinhardt\[FLAC] [2009.11.27] Djangologie 1928-1950\Disc 03 - 1937\10 - A Little Love, A Little Kiss.wav

Pre-gap length 0:00:02.00

Peak level 98.8 % Extraction speed 4.0 X Track quality 100.0 % Test CRC BF917588 Copy CRC BF917588 Track not present in AccurateRip database Copy OK

Track 11

Filename J:\Ongaku\Classical\Django Reinhardt\[FLAC] [2009.11.27] Djangologie 1928-1950\Disc 03 - 1937\11 - Mistery Pacific.wav

Pre-gap length 0:00:02.00

Peak level 98.8 % Extraction speed 3.7 X Track quality 100.0 % Test CRC EE726D99 Copy CRC EE726D99 Track not present in AccurateRip database Copy OK

Track 12

Filename J:\Ongaku\Classical\Django Reinhardt\[FLAC] [2009.11.27] Djangologie 1928-1950\Disc 03 - 1937\12 - In A Sentimental Mood.wav

Pre-gap length 0:00:02.00

Peak level 98.8 % Extraction speed 4.1 X Track quality 100.0 % Test CRC 2186E52B Copy CRC 2186E52B Track not present in AccurateRip database Copy OK

Track 13

Filename J:\Ongaku\Classical\Django Reinhardt\[FLAC] [2009.11.27] Djangologie 1928-1950\Disc 03 - 1937\13 - The Sheik Of Araby.wav

Pre-gap length 0:00:02.00

Peak level 98.8 % Extraction speed 4.2 X Track quality 100.0 % Test CRC 32908703 Copy CRC 32908703 Track not present in AccurateRip database Copy OK

Track 14

Filename J:\Ongaku\Classical\Django Reinhardt\[FLAC] [2009.11.27] Djangologie 1928-1950\Disc 03 - 1937\14 - Improvisation.wav

Pre-gap length 0:00:02.00

Peak level 98.8 % Extraction speed 4.3 X Track quality 100.0 % Test CRC 3A39B5EF Copy CRC 3A39B5EF Track not present in AccurateRip database Copy OK

None of the tracks are present in the AccurateRip database

No errors occurred

End of status report

---- CUETools DB Plugin V2.1.2

[CTDB TOCID: 7wMgoB4yriXZvWfTR_piaBGpsf0-] disk not present in database, Submit result: 7wMgoB4yriXZvWfTR_piaBGpsf0- has been uploaded
 
REM GENRE "Gypsy Jazz"REM DATE 2009REM DISCID A609F90EREM COMMENT "ExactAudioCopy v1.0b2"PERFORMER "Django Reinhardt"TITLE "Djangologie 1928-1950 (Disc 03)"FILE "01 - Hot Lips.wav" WAVE TRACK 01 AUDIO TITLE "Hot Lips" PERFORMER "Django Reinhardt" INDEX 01 00:00:00 TRACK 02 AUDIO TITLE "Ain't Misbehavin" PERFORMER "Django Reinhardt" INDEX 00 03:02:54FILE "02 - Ain't Misbehavin.wav" WAVE INDEX 01 00:00:00 TRACK 03 AUDIO TITLE "Rose Room" PERFORMER "Django Reinhardt" INDEX 00 02:51:45FILE "03 - Rose Room.wav" WAVE INDEX 01 00:00:00 TRACK 04 AUDIO TITLE "Body And Soul" PERFORMER "Django Reinhardt" INDEX 00 02:42:57FILE "04 - Body And Soul.wav" WAVE INDEX 01 00:00:00 TRACK 05 AUDIO TITLE "When Day Is Done" PERFORMER "Django Reinhardt" INDEX 00 03:24:50FILE "05 - When Day Is Done.wav" WAVE INDEX 01 00:00:00 TRACK 06 AUDIO TITLE "Runnin' Wild (Course mouvementee)" PERFORMER "Django Reinhardt" INDEX 00 03:10:70FILE "06 - Runnin' Wild (Course mouvementee).wav" WAVE INDEX 01 00:00:00 TRACK 07 AUDIO TITLE "Chicago" PERFORMER "Django Reinhardt" INDEX 00 02:53:42FILE "07 - Chicago.wav" WAVE INDEX 01 00:00:00 TRACK 08 AUDIO TITLE "Liebestraum, N°3" PERFORMER "Django Reinhardt" INDEX 00 03:23:20FILE "08 - Liebestraum, N°3.wav" WAVE INDEX 01 00:00:00 TRACK 09 AUDIO TITLE "Miss Annabelle Lee" PERFORMER "Django Reinhardt" INDEX 00 03:18:63FILE "09 - Miss Annabelle Lee.wav" WAVE INDEX 01 00:00:00 TRACK 10 AUDIO TITLE "A Little Love, A Little Kiss" PERFORMER "Django Reinhardt" INDEX 00 02:46:57FILE "10 - A Little Love, A Little Kiss.wav" WAVE INDEX 01 00:00:00 TRACK 11 AUDIO TITLE "Mistery Pacific" PERFORMER "Django Reinhardt" INDEX 00 03:17:37FILE "11 - Mistery Pacific.wav" WAVE INDEX 01 00:00:00 TRACK 12 AUDIO TITLE "In A Sentimental Mood" PERFORMER "Django Reinhardt" INDEX 00 02:18:52FILE "12 - In A Sentimental Mood.wav" WAVE INDEX 01 00:00:00 TRACK 13 AUDIO TITLE "The Sheik Of Araby" PERFORMER "Django Reinhardt" INDEX 00 02:59:37FILE "13 - The Sheik Of Araby.wav" WAVE INDEX 01 00:00:00 TRACK 14 AUDIO TITLE "Improvisation" PERFORMER "Django Reinhardt" INDEX 00 03:03:06FILE "14 - Improvisation.wav" WAVE INDEX 01 00:00:00
Продолжительность: 39:53

Треклист:
01. Parfum (2:59)
02. Alabamy Sound (2:51)
03. Honey Suckle Rose (2:47)
04. Crazy Rythm (3:02)
05. Out Of Nowhere (3:19)
06. Sweet Georgia Brown (3:02)
07. Bugle Call Rag (2:42)
08. Between The Devil And The Deep Blue Sea (2:57)
09. I Got Rhythm (2:15)
10. Sweet Sue (3:06)
11. Hangin' Around Boudon (2:55)
12. Japanese Sandman (2:59)
13. Pennies From Heaven (2:24)
14. Tiger Rag (2:34)
 
Exact Audio Copy V1.0 beta 2 from 29. April 2011

EAC extraction logfile from 25. June 2011, 20:26

Django Reinhardt / Djangologie 1928-1950 (Disc 04)

Used drive : Optiarc DVD-ROM DDU1675S Adapter: 3 ID: 0

Read mode : SecureUtilize accurate stream : YesDefeat audio cache : YesMake use of C2 pointers : No

Read offset correction : 6Overread into Lead-In and Lead-Out : NoFill up missing offset samples with silence : YesDelete leading and trailing silent blocks : NoNull samples used in CRC calculations : YesUsed interface : Installed external ASPI interfaceGap handling : Appended to previous track

Used output format : User Defined EncoderSelected bitrate : 896 kBit/sQuality : HighAdd ID3 tag : NoCommand line compressor : C:\Programme\Exact Audio Copy\FLAC\FLAC.EXEAdditional command line options : -6 -V -T "ARTIST=%artist%" -T "TITLE=%title%" -T "ALBUM=%albumtitle%" -T "DATE=%year%" -T "TRACKNUMBER=%tracknr%" -T "GENRE=%genre%" -T "COMMENT=%comment%" %hascover%--picture="%coverfile%"%hascover% %source% -o %dest%

TOC of the extracted CD

Track | Start | Length | Start sector | End sector --------------------------------------------------------- 1 | 0:00.00 | 2:59.04 | 0 | 13428 2 | 2:59.04 | 2:50.54 | 13429 | 26232 3 | 5:49.58 | 2:46.62 | 26233 | 38744 4 | 8:36.45 | 3:02.36 | 38745 | 52430 5 | 11:39.06 | 3:18.58 | 52431 | 67338 6 | 14:57.64 | 3:02.10 | 67339 | 80998 7 | 17:59.74 | 2:42.18 | 80999 | 93166 8 | 20:42.17 | 2:57.22 | 93167 | 106463 9 | 23:39.39 | 2:14.58 | 106464 | 116571 10 | 25:54.22 | 3:06.22 | 116572 | 130543 11 | 29:00.44 | 2:55.08 | 130544 | 143676 12 | 31:55.52 | 2:59.33 | 143677 | 157134 13 | 34:55.10 | 2:23.42 | 157135 | 167901 14 | 37:18.52 | 2:33.63 | 167902 | 179439

Track 1

Filename J:\Ongaku\Classical\Django Reinhardt\[FLAC] [2009.11.27] Djangologie 1928-1950\Disc 04 - 1937\01 - Parfum.wav

Pre-gap length 0:00:02.00

Peak level 98.8 % Extraction speed 2.4 X Track quality 100.0 % Test CRC D3CD6E27 Copy CRC D3CD6E27 Track not present in AccurateRip database Copy OK

Track 2

Filename J:\Ongaku\Classical\Django Reinhardt\[FLAC] [2009.11.27] Djangologie 1928-1950\Disc 04 - 1937\02 - Alabamy Sound.wav

Pre-gap length 0:00:02.00

Peak level 98.8 % Extraction speed 2.6 X Track quality 100.0 % Test CRC C9BD3D34 Copy CRC C9BD3D34 Track not present in AccurateRip database Copy OK

Track 3

Filename J:\Ongaku\Classical\Django Reinhardt\[FLAC] [2009.11.27] Djangologie 1928-1950\Disc 04 - 1937\03 - Honey Suckle Rose.wav

Pre-gap length 0:00:02.00

Peak level 98.8 % Extraction speed 2.7 X Track quality 100.0 % Test CRC 0E81D050 Copy CRC 0E81D050 Track not present in AccurateRip database Copy OK

Track 4

Filename J:\Ongaku\Classical\Django Reinhardt\[FLAC] [2009.11.27] Djangologie 1928-1950\Disc 04 - 1937\04 - Crazy Rythm.wav

Pre-gap length 0:00:02.00

Peak level 98.8 % Extraction speed 3.0 X Track quality 100.0 % Test CRC 0AC9BA04 Copy CRC 0AC9BA04 Track not present in AccurateRip database Copy OK

Track 5

Filename J:\Ongaku\Classical\Django Reinhardt\[FLAC] [2009.11.27] Djangologie 1928-1950\Disc 04 - 1937\05 - Out Of Nowhere.wav

Pre-gap length 0:00:02.00

Peak level 98.8 % Extraction speed 3.2 X Track quality 100.0 % Test CRC 63ED4F65 Copy CRC 63ED4F65 Track not present in AccurateRip database Copy OK

Track 6

Filename J:\Ongaku\Classical\Django Reinhardt\[FLAC] [2009.11.27] Djangologie 1928-1950\Disc 04 - 1937\06 - Sweet Georgia Brown.wav

Pre-gap length 0:00:02.00

Peak level 98.8 % Extraction speed 3.3 X Track quality 100.0 % Test CRC 2F0A67E3 Copy CRC 2F0A67E3 Track not present in AccurateRip database Copy OK

Track 7

Filename J:\Ongaku\Classical\Django Reinhardt\[FLAC] [2009.11.27] Djangologie 1928-1950\Disc 04 - 1937\07 - Bugle Call Rag.wav

Pre-gap length 0:00:02.00

Peak level 98.8 % Extraction speed 3.4 X Track quality 100.0 % Test CRC 5DBE3FB3 Copy CRC 5DBE3FB3 Track not present in AccurateRip database Copy OK

Track 8

Filename J:\Ongaku\Classical\Django Reinhardt\[FLAC] [2009.11.27] Djangologie 1928-1950\Disc 04 - 1937\08 - Between The Devil And The Deep Blue Sea.wav

Pre-gap length 0:00:02.00

Peak level 98.8 % Extraction speed 3.0 X Track quality 99.9 % Test CRC 4E536C52 Copy CRC 4E536C52 Track not present in AccurateRip database Copy OK

Track 9

Filename J:\Ongaku\Classical\Django Reinhardt\[FLAC] [2009.11.27] Djangologie 1928-1950\Disc 04 - 1937\09 - I Got Rhythm.wav

Pre-gap length 0:00:02.00

Peak level 98.8 % Extraction speed 2.8 X Track quality 99.9 % Test CRC DDF47667 Copy CRC DDF47667 Track not present in AccurateRip database Copy OK

Track 10

Filename J:\Ongaku\Classical\Django Reinhardt\[FLAC] [2009.11.27] Djangologie 1928-1950\Disc 04 - 1937\10 - Sweet Sue.wav

Pre-gap length 0:00:02.00

Peak level 98.8 % Extraction speed 3.8 X Track quality 100.0 % Test CRC BC970A39 Copy CRC BC970A39 Track not present in AccurateRip database Copy OK

Track 11

Filename J:\Ongaku\Classical\Django Reinhardt\[FLAC] [2009.11.27] Djangologie 1928-1950\Disc 04 - 1937\11 - Hangin' Around Boudon.wav

Pre-gap length 0:00:02.00

Peak level 98.8 % Extraction speed 3.9 X Track quality 100.0 % Test CRC E2B6CA95 Copy CRC E2B6CA95 Track not present in AccurateRip database Copy OK

Track 12

Filename J:\Ongaku\Classical\Django Reinhardt\[FLAC] [2009.11.27] Djangologie 1928-1950\Disc 04 - 1937\12 - Japanese Sandman.wav

Pre-gap length 0:00:02.00

Peak level 98.8 % Extraction speed 4.1 X Track quality 100.0 % Test CRC 10175E35 Copy CRC 10175E35 Track not present in AccurateRip database Copy OK

Track 13

Filename J:\Ongaku\Classical\Django Reinhardt\[FLAC] [2009.11.27] Djangologie 1928-1950\Disc 04 - 1937\13 - Pennies From Heaven.wav

Pre-gap length 0:00:02.00

Peak level 98.8 % Extraction speed 4.0 X Track quality 100.0 % Test CRC 1958164F Copy CRC 1958164F Track not present in AccurateRip database Copy OK

Track 14

Filename J:\Ongaku\Classical\Django Reinhardt\[FLAC] [2009.11.27] Djangologie 1928-1950\Disc 04 - 1937\14 - Tiger Rag.wav

Pre-gap length 0:00:02.00

Peak level 98.8 % Extraction speed 4.1 X Track quality 100.0 % Test CRC FA2AE722 Copy CRC FA2AE722 Track not present in AccurateRip database Copy OK

None of the tracks are present in the AccurateRip database

No errors occurred

End of status report

---- CUETools DB Plugin V2.1.2

[CTDB TOCID: PkJsjrnEi4XfLL_OQzXqiIWOD6E-] disk not present in database, Submit result: PkJsjrnEi4XfLL_OQzXqiIWOD6E- has been uploaded
 
REM GENRE "Gypsy Jazz"REM DATE 2009REM DISCID AD09580EREM COMMENT "ExactAudioCopy v1.0b2"PERFORMER "Django Reinhardt"TITLE "Djangologie 1928-1950 (Disc 04)"FILE "01 - Parfum.wav" WAVE TRACK 01 AUDIO TITLE "Parfum" PERFORMER "Django Reinhardt" INDEX 01 00:00:00 TRACK 02 AUDIO TITLE "Alabamy Sound" PERFORMER "Django Reinhardt" INDEX 00 02:57:04FILE "02 - Alabamy Sound.wav" WAVE INDEX 01 00:00:00 TRACK 03 AUDIO TITLE "Honey Suckle Rose" PERFORMER "Django Reinhardt" INDEX 00 02:48:54FILE "03 - Honey Suckle Rose.wav" WAVE INDEX 01 00:00:00 TRACK 04 AUDIO TITLE "Crazy Rythm" PERFORMER "Django Reinhardt" INDEX 00 02:44:62FILE "04 - Crazy Rythm.wav" WAVE INDEX 01 00:00:00 TRACK 05 AUDIO TITLE "Out Of Nowhere" PERFORMER "Django Reinhardt" INDEX 00 03:00:36FILE "05 - Out Of Nowhere.wav" WAVE INDEX 01 00:00:00 TRACK 06 AUDIO TITLE "Sweet Georgia Brown" PERFORMER "Django Reinhardt" INDEX 00 03:16:58FILE "06 - Sweet Georgia Brown.wav" WAVE INDEX 01 00:00:00 TRACK 07 AUDIO TITLE "Bugle Call Rag" PERFORMER "Django Reinhardt" INDEX 00 03:00:10FILE "07 - Bugle Call Rag.wav" WAVE INDEX 01 00:00:00 TRACK 08 AUDIO TITLE "Between The Devil And The Deep Blue Sea" PERFORMER "Django Reinhardt" INDEX 00 02:40:18FILE "08 - Between The Devil And The Deep Blue Sea.wav" WAVE INDEX 01 00:00:00 TRACK 09 AUDIO TITLE "I Got Rhythm" PERFORMER "Django Reinhardt" INDEX 00 02:55:22FILE "09 - I Got Rhythm.wav" WAVE INDEX 01 00:00:00 TRACK 10 AUDIO TITLE "Sweet Sue" PERFORMER "Django Reinhardt" INDEX 00 02:12:58FILE "10 - Sweet Sue.wav" WAVE INDEX 01 00:00:00 TRACK 11 AUDIO TITLE "Hangin' Around Boudon" PERFORMER "Django Reinhardt" INDEX 00 03:04:22FILE "11 - Hangin' Around Boudon.wav" WAVE INDEX 01 00:00:00 TRACK 12 AUDIO TITLE "Japanese Sandman" PERFORMER "Django Reinhardt" INDEX 00 02:53:08FILE "12 - Japanese Sandman.wav" WAVE INDEX 01 00:00:00 TRACK 13 AUDIO TITLE "Pennies From Heaven" PERFORMER "Django Reinhardt" INDEX 00 02:57:33FILE "13 - Pennies From Heaven.wav" WAVE INDEX 01 00:00:00 TRACK 14 AUDIO TITLE "Tiger Rag" PERFORMER "Django Reinhardt" INDEX 00 02:21:42FILE "14 - Tiger Rag.wav" WAVE INDEX 01 00:00:00
Продолжительность: 41:04

Треклист:
01. Saint Louis Blues (2:44)
02. Bouncin' Around (2:45)
03. Eddie's Blues (Eddie South Blues) (3:08)
04. Sweet Georgia Brown (2:48)
05. Lady Be Good (3:18)
06. Dinah (2:28)
07. Daphne (3:02)
08. You Took Advantage Of Me (2:55)
09. I've Found A New Baby (2:37)
10. I Ain't Got Nobody (3:02)
11. Baby Won't You Please Come Home (2:59)
12. Big Boy Blues (3:26)
13. Swing Guitars (3:06)
14. Bill Coleman Blues (2:46)
 
Exact Audio Copy V1.0 beta 2 from 29. April 2011

EAC extraction logfile from 25. June 2011, 21:02

Django Reinhardt / Djangologie 1928-1950 (Disc 05)

Used drive : Optiarc DVD-ROM DDU1675S Adapter: 3 ID: 0

Read mode : SecureUtilize accurate stream : YesDefeat audio cache : YesMake use of C2 pointers : No

Read offset correction : 6Overread into Lead-In and Lead-Out : NoFill up missing offset samples with silence : YesDelete leading and trailing silent blocks : NoNull samples used in CRC calculations : YesUsed interface : Installed external ASPI interfaceGap handling : Appended to previous track

Used output format : User Defined EncoderSelected bitrate : 896 kBit/sQuality : HighAdd ID3 tag : NoCommand line compressor : C:\Programme\Exact Audio Copy\FLAC\FLAC.EXEAdditional command line options : -6 -V -T "ARTIST=%artist%" -T "TITLE=%title%" -T "ALBUM=%albumtitle%" -T "DATE=%year%" -T "TRACKNUMBER=%tracknr%" -T "GENRE=%genre%" -T "COMMENT=%comment%" %hascover%--picture="%coverfile%"%hascover% %source% -o %dest%

TOC of the extracted CD

Track | Start | Length | Start sector | End sector --------------------------------------------------------- 1 | 0:00.00 | 2:43.68 | 0 | 12292 2 | 2:43.68 | 2:44.69 | 12293 | 24661 3 | 5:28.62 | 3:08.07 | 24662 | 38768 4 | 8:36.69 | 2:47.70 | 38769 | 51363 5 | 11:24.64 | 3:18.30 | 51364 | 66243 6 | 14:43.19 | 2:28.18 | 66244 | 77361 7 | 17:11.37 | 3:02.06 | 77362 | 91017 8 | 20:13.43 | 2:55.25 | 91018 | 104167 9 | 23:08.68 | 2:36.51 | 104168 | 115918 10 | 25:45.44 | 3:01.40 | 115919 | 129533 11 | 28:47.09 | 2:58.70 | 129534 | 142953 12 | 31:46.04 | 3:26.06 | 142954 | 158409 13 | 35:12.10 | 3:06.18 | 158410 | 172377 14 | 38:18.28 | 2:45.63 | 172378 | 184815

Track 1

Filename J:\Ongaku\Classical\Django Reinhardt\[FLAC] [2009.11.27] Djangologie 1928-1950\Disc 05 - 1937\01 - Saint Louis Blues.wav

Pre-gap length 0:00:02.00

Peak level 98.8 % Extraction speed 2.3 X Track quality 100.0 % Test CRC C5AA01D7 Copy CRC C5AA01D7 Track not present in AccurateRip database Copy OK

Track 2

Filename J:\Ongaku\Classical\Django Reinhardt\[FLAC] [2009.11.27] Djangologie 1928-1950\Disc 05 - 1937\02 - Bouncin' Around.wav

Pre-gap length 0:00:02.00

Peak level 98.8 % Extraction speed 2.5 X Track quality 100.0 % Test CRC CE097101 Copy CRC CE097101 Track not present in AccurateRip database Copy OK

Track 3

Filename J:\Ongaku\Classical\Django Reinhardt\[FLAC] [2009.11.27] Djangologie 1928-1950\Disc 05 - 1937\03 - Eddie's Blues (Eddie South Blues).wav

Pre-gap length 0:00:02.00

Peak level 98.8 % Extraction speed 2.8 X Track quality 100.0 % Test CRC 50A53CDD Copy CRC 50A53CDD Track not present in AccurateRip database Copy OK

Track 4

Filename J:\Ongaku\Classical\Django Reinhardt\[FLAC] [2009.11.27] Djangologie 1928-1950\Disc 05 - 1937\04 - Sweet Georgia Brown.wav

Pre-gap length 0:00:02.00

Peak level 98.8 % Extraction speed 2.9 X Track quality 100.0 % Test CRC 6F9732AB Copy CRC 6F9732AB Track not present in AccurateRip database Copy OK

Track 5

Filename J:\Ongaku\Classical\Django Reinhardt\[FLAC] [2009.11.27] Djangologie 1928-1950\Disc 05 - 1937\05 - Lady Be Good.wav

Pre-gap length 0:00:02.00

Peak level 98.8 % Extraction speed 3.2 X Track quality 100.0 % Test CRC 7919681C Copy CRC 7919681C Track not present in AccurateRip database Copy OK

Track 6

Filename J:\Ongaku\Classical\Django Reinhardt\[FLAC] [2009.11.27] Djangologie 1928-1950\Disc 05 - 1937\06 - Dinah.wav

Pre-gap length 0:00:02.00

Peak level 98.8 % Extraction speed 3.1 X Track quality 100.0 % Test CRC 6C355F4A Copy CRC 6C355F4A Track not present in AccurateRip database Copy OK

Track 7

Filename J:\Ongaku\Classical\Django Reinhardt\[FLAC] [2009.11.27] Djangologie 1928-1950\Disc 05 - 1937\07 - Daphne.wav

Pre-gap length 0:00:02.00

Peak level 98.8 % Extraction speed 3.4 X Track quality 100.0 % Test CRC FE5E9DFC Copy CRC FE5E9DFC Track not present in AccurateRip database Copy OK

Track 8

Filename J:\Ongaku\Classical\Django Reinhardt\[FLAC] [2009.11.27] Djangologie 1928-1950\Disc 05 - 1937\08 - You Took Advantage Of Me.wav

Pre-gap length 0:00:02.00

Peak level 98.8 % Extraction speed 3.5 X Track quality 100.0 % Test CRC 93A94AE6 Copy CRC 93A94AE6 Track not present in AccurateRip database Copy OK

Track 9

Filename J:\Ongaku\Classical\Django Reinhardt\[FLAC] [2009.11.27] Djangologie 1928-1950\Disc 05 - 1937\09 - I've Found A New Baby.wav

Pre-gap length 0:00:02.00

Peak level 98.8 % Extraction speed 3.0 X Track quality 99.9 % Test CRC 7545A094 Copy CRC 7545A094 Track not present in AccurateRip database Copy OK

Track 10

Filename J:\Ongaku\Classical\Django Reinhardt\[FLAC] [2009.11.27] Djangologie 1928-1950\Disc 05 - 1937\10 - I Ain't Got Nobody.wav

Pre-gap length 0:00:02.00

Peak level 98.8 % Extraction speed 3.8 X Track quality 100.0 % Test CRC 5E349AB7 Copy CRC 5E349AB7 Track not present in AccurateRip database Copy OK

Track 11

Filename J:\Ongaku\Classical\Django Reinhardt\[FLAC] [2009.11.27] Djangologie 1928-1950\Disc 05 - 1937\11 - Baby Won't You Please Come Home.wav

Pre-gap length 0:00:02.00

Peak level 98.8 % Extraction speed 3.3 X Track quality 99.9 % Test CRC DC121FBE Copy CRC DC121FBE Track not present in AccurateRip database Copy OK

Track 12

Filename J:\Ongaku\Classical\Django Reinhardt\[FLAC] [2009.11.27] Djangologie 1928-1950\Disc 05 - 1937\12 - Big Boy Blues.wav

Pre-gap length 0:00:02.00

Peak level 98.8 % Extraction speed 4.2 X Track quality 100.0 % Test CRC 95C53265 Copy CRC 95C53265 Track not present in AccurateRip database Copy OK

Track 13

Filename J:\Ongaku\Classical\Django Reinhardt\[FLAC] [2009.11.27] Djangologie 1928-1950\Disc 05 - 1937\13 - Swing Guitars.wav

Pre-gap length 0:00:02.00

Peak level 98.8 % Extraction speed 3.6 X Track quality 99.9 % Test CRC 664239E7 Copy CRC 664239E7 Track not present in AccurateRip database Copy OK

Track 14

Filename J:\Ongaku\Classical\Django Reinhardt\[FLAC] [2009.11.27] Djangologie 1928-1950\Disc 05 - 1937\14 - Bill Coleman Blues.wav

Pre-gap length 0:00:02.00

Peak level 98.8 % Extraction speed 4.2 X Track quality 100.0 % Test CRC D855DD93 Copy CRC D855DD93 Track not present in AccurateRip database Copy OK

None of the tracks are present in the AccurateRip database

No errors occurred

End of status report

---- CUETools DB Plugin V2.1.2

[CTDB TOCID: vlkdJJIrQhk.6X.tB1USVA5DAa8-] disk not present in database, Submit result: vlkdJJIrQhk.6X.tB1USVA5DAa8- has been uploaded
 
REM GENRE "Gypsy Jazz"REM DATE 2009REM DISCID AB09A00EREM COMMENT "ExactAudioCopy v1.0b2"PERFORMER "Django Reinhardt"TITLE "Djangologie 1928-1950 (Disc 05)"FILE "01 - Saint Louis Blues.wav" WAVE TRACK 01 AUDIO TITLE "Saint Louis Blues" PERFORMER "Django Reinhardt" INDEX 01 00:00:00 TRACK 02 AUDIO TITLE "Bouncin' Around" PERFORMER "Django Reinhardt" INDEX 00 02:41:68FILE "02 - Bouncin' Around.wav" WAVE INDEX 01 00:00:00 TRACK 03 AUDIO TITLE "Eddie's Blues (Eddie South Blues)" PERFORMER "Django Reinhardt" INDEX 00 02:42:69FILE "03 - Eddie's Blues (Eddie South Blues).wav" WAVE INDEX 01 00:00:00 TRACK 04 AUDIO TITLE "Sweet Georgia Brown" PERFORMER "Django Reinhardt" INDEX 00 03:06:07FILE "04 - Sweet Georgia Brown.wav" WAVE INDEX 01 00:00:00 TRACK 05 AUDIO TITLE "Lady Be Good" PERFORMER "Django Reinhardt" INDEX 00 02:45:70FILE "05 - Lady Be Good.wav" WAVE INDEX 01 00:00:00 TRACK 06 AUDIO TITLE "Dinah" PERFORMER "Django Reinhardt" INDEX 00 03:16:30FILE "06 - Dinah.wav" WAVE INDEX 01 00:00:00 TRACK 07 AUDIO TITLE "Daphne" PERFORMER "Django Reinhardt" INDEX 00 02:26:18FILE "07 - Daphne.wav" WAVE INDEX 01 00:00:00 TRACK 08 AUDIO TITLE "You Took Advantage Of Me" PERFORMER "Django Reinhardt" INDEX 00 03:00:06FILE "08 - You Took Advantage Of Me.wav" WAVE INDEX 01 00:00:00 TRACK 09 AUDIO TITLE "I've Found A New Baby" PERFORMER "Django Reinhardt" INDEX 00 02:53:25FILE "09 - I've Found A New Baby.wav" WAVE INDEX 01 00:00:00 TRACK 10 AUDIO TITLE "I Ain't Got Nobody" PERFORMER "Django Reinhardt" INDEX 00 02:34:51FILE "10 - I Ain't Got Nobody.wav" WAVE INDEX 01 00:00:00 TRACK 11 AUDIO TITLE "Baby Won't You Please Come Home" PERFORMER "Django Reinhardt" INDEX 00 02:59:40FILE "11 - Baby Won't You Please Come Home.wav" WAVE INDEX 01 00:00:00 TRACK 12 AUDIO TITLE "Big Boy Blues" PERFORMER "Django Reinhardt" INDEX 00 02:56:70FILE "12 - Big Boy Blues.wav" WAVE INDEX 01 00:00:00 TRACK 13 AUDIO TITLE "Swing Guitars" PERFORMER "Django Reinhardt" INDEX 00 03:24:06FILE "13 - Swing Guitars.wav" WAVE INDEX 01 00:00:00 TRACK 14 AUDIO TITLE "Bill Coleman Blues" PERFORMER "Django Reinhardt" INDEX 00 03:04:18FILE "14 - Bill Coleman Blues.wav" WAVE INDEX 01 00:00:00
Продолжительность: 45:15

Треклист:
01. Somebody Loves Me (3:28)
02. I Can't Believe That You're In Love With Me (3:17)
03. Minor Swing (3:16)
04. Viper's Dream (3:16)
05. Fiddle's Blues (2:46)
06. Interpretation Swing Du 1er Mouvement Du Concerto En Re Mineur De J.S. Bach (2:27)
07. Improvisation Sur Le 1er Mouvement Du Concerto En Re Mineur De J.S. Bach (3:21)
08. Swingin' With Django (2:52)
09. Paramount Stomp (2:38)
10. Bolero (4:03)
11. Mabel (4:11)
12. My Serenade (3:02)
13. Serenade For A Wealthy Widow (3:16)
14. Taj Mahal (3:21)
 
Exact Audio Copy V1.0 beta 2 from 29. April 2011

EAC extraction logfile from 25. June 2011, 21:48

Django Reinhardt / Djangologie 1928-1950 (Disc 06)

Used drive : Optiarc DVD-ROM DDU1675S Adapter: 3 ID: 0

Read mode : SecureUtilize accurate stream : YesDefeat audio cache : YesMake use of C2 pointers : No

Read offset correction : 6Overread into Lead-In and Lead-Out : NoFill up missing offset samples with silence : YesDelete leading and trailing silent blocks : NoNull samples used in CRC calculations : YesUsed interface : Installed external ASPI interfaceGap handling : Appended to previous track

Used output format : User Defined EncoderSelected bitrate : 896 kBit/sQuality : HighAdd ID3 tag : NoCommand line compressor : C:\Programme\Exact Audio Copy\FLAC\FLAC.EXEAdditional command line options : -6 -V -T "ARTIST=%artist%" -T "TITLE=%title%" -T "ALBUM=%albumtitle%" -T "DATE=%year%" -T "TRACKNUMBER=%tracknr%" -T "GENRE=%genre%" -T "COMMENT=%comment%" %hascover%--picture="%coverfile%"%hascover% %source% -o %dest%

TOC of the extracted CD

Track | Start | Length | Start sector | End sector --------------------------------------------------------- 1 | 0:00.00 | 3:28.12 | 0 | 15611 2 | 3:28.12 | 3:17.04 | 15612 | 30390 3 | 6:45.16 | 3:15.46 | 30391 | 45061 4 | 10:00.62 | 3:15.57 | 45062 | 59743 5 | 13:16.44 | 2:46.05 | 59744 | 72198 6 | 16:02.49 | 2:27.36 | 72199 | 83259 7 | 18:30.10 | 3:21.11 | 83260 | 98345 8 | 21:51.21 | 2:52.12 | 98346 | 111257 9 | 24:43.33 | 2:37.39 | 111258 | 123071 10 | 27:20.72 | 4:03.27 | 123072 | 141323 11 | 31:24.24 | 4:10.39 | 141324 | 160112 12 | 35:34.63 | 3:02.34 | 160113 | 173796 13 | 38:37.22 | 3:16.12 | 173797 | 188508 14 | 41:53.34 | 3:21.24 | 188509 | 203607

Track 1

Filename J:\Ongaku\Classical\Django Reinhardt\[FLAC] [2009.11.27] Djangologie 1928-1950\Disc 06 - 1937\01 - Somebody Loves Me.wav

Pre-gap length 0:00:02.00

Peak level 98.8 % Extraction speed 2.6 X Track quality 99.9 % Test CRC 680BFFEE Copy CRC 680BFFEE Track not present in AccurateRip database Copy OK

Track 2

Filename J:\Ongaku\Classical\Django Reinhardt\[FLAC] [2009.11.27] Djangologie 1928-1950\Disc 06 - 1937\02 - I Can't Believe That You're In Love With Me.wav

Pre-gap length 0:00:02.00

Peak level 98.8 % Extraction speed 3.6 X Track quality 100.0 % Test CRC 00ABDFFF Copy CRC 00ABDFFF Track not present in AccurateRip database Copy OK

Track 3

Filename J:\Ongaku\Classical\Django Reinhardt\[FLAC] [2009.11.27] Djangologie 1928-1950\Disc 06 - 1937\03 - Minor Swing.wav

Pre-gap length 0:00:02.00

Peak level 98.8 % Extraction speed 3.9 X Track quality 100.0 % Test CRC 5F6BB80A Copy CRC 5F6BB80A Track not present in AccurateRip database Copy OK

Track 4

Filename J:\Ongaku\Classical\Django Reinhardt\[FLAC] [2009.11.27] Djangologie 1928-1950\Disc 06 - 1937\04 - Viper's Dream.wav

Pre-gap length 0:00:02.00

Peak level 98.8 % Extraction speed 4.1 X Track quality 100.0 % Test CRC 9F1F96AB Copy CRC 9F1F96AB Track not present in AccurateRip database Copy OK

Track 5

Filename J:\Ongaku\Classical\Django Reinhardt\[FLAC] [2009.11.27] Djangologie 1928-1950\Disc 06 - 1937\05 - Fiddle's Blues.wav

Pre-gap length 0:00:02.00

Peak level 98.8 % Extraction speed 4.2 X Track quality 100.0 % Test CRC 75F7C63D Copy CRC 75F7C63D Track not present in AccurateRip database Copy OK

Track 6

Filename J:\Ongaku\Classical\Django Reinhardt\[FLAC] [2009.11.27] Djangologie 1928-1950\Disc 06 - 1937\06 - Interpretation Swing Du 1er Mouvement Du Concerto En Re Mineur De J.S. Bach.wav

Pre-gap length 0:00:02.00

Peak level 98.8 % Extraction speed 4.2 X Track quality 100.0 % Test CRC 95EC4B8A Copy CRC 95EC4B8A Track not present in AccurateRip database Copy OK

Track 7

Filename J:\Ongaku\Classical\Django Reinhardt\[FLAC] [2009.11.27] Djangologie 1928-1950\Disc 06 - 1937\07 - Improvisation Sur Le 1er Mouvement Du Concerto En Re Mineur De J.S. Bach.wav

Pre-gap length 0:00:02.00

Peak level 99.2 % Extraction speed 3.5 X Track quality 99.9 % Test CRC B1DC82EF Copy CRC B1DC82EF Track not present in AccurateRip database Copy OK

Track 8

Filename J:\Ongaku\Classical\Django Reinhardt\[FLAC] [2009.11.27] Djangologie 1928-1950\Disc 06 - 1937\08 - Swingin' With Django.wav

Pre-gap length 0:00:02.00

Peak level 99.2 % Extraction speed 4.6 X Track quality 100.0 % Test CRC C850EA3F Copy CRC C850EA3F Track not present in AccurateRip database Copy OK

Track 9

Filename J:\Ongaku\Classical\Django Reinhardt\[FLAC] [2009.11.27] Djangologie 1928-1950\Disc 06 - 1937\09 - Paramount Stomp.wav

Pre-gap length 0:00:02.00

Peak level 99.2 % Extraction speed 3.8 X Track quality 100.0 % Test CRC C1310FAB Copy CRC C1310FAB Track not present in AccurateRip database Copy OK

Track 10

Filename J:\Ongaku\Classical\Django Reinhardt\[FLAC] [2009.11.27] Djangologie 1928-1950\Disc 06 - 1937\10 - Bolero.wav

Pre-gap length 0:00:02.00

Peak level 99.2 % Extraction speed 3.1 X Track quality 99.9 % Test CRC 04233C3B Copy CRC 04233C3B Track not present in AccurateRip database Copy OK

Track 11

Filename J:\Ongaku\Classical\Django Reinhardt\[FLAC] [2009.11.27] Djangologie 1928-1950\Disc 06 - 1937\11 - Mabel.wav

Pre-gap length 0:00:02.00

Peak level 99.2 % Extraction speed 3.6 X Track quality 100.0 % Test CRC 872350D6 Copy CRC 872350D6 Track not present in AccurateRip database Copy OK

Track 12

Filename J:\Ongaku\Classical\Django Reinhardt\[FLAC] [2009.11.27] Djangologie 1928-1950\Disc 06 - 1937\12 - My Serenade.wav

Pre-gap length 0:00:02.00

Peak level 99.2 % Extraction speed 3.3 X Track quality 100.0 % Test CRC 9ACD8C4C Copy CRC 9ACD8C4C Track not present in AccurateRip database Copy OK

Track 13

Filename J:\Ongaku\Classical\Django Reinhardt\[FLAC] [2009.11.27] Djangologie 1928-1950\Disc 06 - 1937\13 - Serenade For A Wealthy Widow.wav

Pre-gap length 0:00:02.00

Peak level 99.2 % Extraction speed 4.0 X Track quality 100.0 % Test CRC 7C367B19 Copy CRC 7C367B19 Track not present in AccurateRip database Copy OK

Track 14

Filename J:\Ongaku\Classical\Django Reinhardt\[FLAC] [2009.11.27] Djangologie 1928-1950\Disc 06 - 1937\14 - Taj Mahal.wav

Pre-gap length 0:00:02.00

Peak level 99.2 % Extraction speed 3.7 X Track quality 100.0 % Test CRC 27371657 Copy CRC 27371657 Track not present in AccurateRip database Copy OK

None of the tracks are present in the AccurateRip database

No errors occurred

End of status report

---- CUETools DB Plugin V2.1.2

[CTDB TOCID: _y3iW.5wwiMEOcT5Ik3jnII_058-] disk not present in database, Submit result: _y3iW.5wwiMEOcT5Ik3jnII_058- has been uploaded
 
REM GENRE "Gypsy Jazz"REM DATE 2009REM DISCID AE0A9A0EREM COMMENT "ExactAudioCopy v1.0b2"PERFORMER "Django Reinhardt"TITLE "Djangologie 1928-1950 (Disc 06)"FILE "01 - Somebody Loves Me.wav" WAVE TRACK 01 AUDIO TITLE "Somebody Loves Me" PERFORMER "Django Reinhardt" INDEX 01 00:00:00 TRACK 02 AUDIO TITLE "I Can't Believe That You're In Love With Me" PERFORMER "Django Reinhardt" INDEX 00 03:26:12FILE "02 - I Can't Believe That You're In Love With Me.wav" WAVE INDEX 01 00:00:00 TRACK 03 AUDIO TITLE "Minor Swing" PERFORMER "Django Reinhardt" INDEX 00 03:15:04FILE "03 - Minor Swing.wav" WAVE INDEX 01 00:00:00 TRACK 04 AUDIO TITLE "Viper's Dream" PERFORMER "Django Reinhardt" INDEX 00 03:13:46FILE "04 - Viper's Dream.wav" WAVE INDEX 01 00:00:00 TRACK 05 AUDIO TITLE "Fiddle's Blues" PERFORMER "Django Reinhardt" INDEX 00 03:13:57FILE "05 - Fiddle's Blues.wav" WAVE INDEX 01 00:00:00 TRACK 06 AUDIO TITLE "Interpretation Swing Du 1er Mouvement Du Concerto En Re Mineur De J.S. Bach" PERFORMER "Django Reinhardt" INDEX 00 02:44:05FILE "06 - Interpretation Swing Du 1er Mouvement Du Concerto En Re Mineur De J.S. Bach.wav" WAVE INDEX 01 00:00:00 TRACK 07 AUDIO TITLE "Improvisation Sur Le 1er Mouvement Du Concerto En Re Mineur De J.S. Bach" PERFORMER "Django Reinhardt" INDEX 00 02:25:36FILE "07 - Improvisation Sur Le 1er Mouvement Du Concerto En Re Mineur De J.S. Bach.wav" WAVE INDEX 01 00:00:00 TRACK 08 AUDIO TITLE "Swingin' With Django" PERFORMER "Django Reinhardt" INDEX 00 03:19:11FILE "08 - Swingin' With Django.wav" WAVE INDEX 01 00:00:00 TRACK 09 AUDIO TITLE "Paramount Stomp" PERFORMER "Django Reinhardt" INDEX 00 02:50:12FILE "09 - Paramount Stomp.wav" WAVE INDEX 01 00:00:00 TRACK 10 AUDIO TITLE "Bolero" PERFORMER "Django Reinhardt" INDEX 00 02:35:39FILE "10 - Bolero.wav" WAVE INDEX 01 00:00:00 TRACK 11 AUDIO TITLE "Mabel" PERFORMER "Django Reinhardt" INDEX 00 04:01:27FILE "11 - Mabel.wav" WAVE INDEX 01 00:00:00 TRACK 12 AUDIO TITLE "My Serenade" PERFORMER "Django Reinhardt" INDEX 00 04:08:39FILE "12 - My Serenade.wav" WAVE INDEX 01 00:00:00 TRACK 13 AUDIO TITLE "Serenade For A Wealthy Widow" PERFORMER "Django Reinhardt" INDEX 00 03:00:34FILE "13 - Serenade For A Wealthy Widow.wav" WAVE INDEX 01 00:00:00 TRACK 14 AUDIO TITLE "Taj Mahal" PERFORMER "Django Reinhardt" INDEX 00 03:14:12FILE "14 - Taj Mahal.wav" WAVE INDEX 01 00:00:00
Продолжительность: 41:44

Треклист:
01. Organ Grinder's Swing (2:37)
02. You Rascal You (3:06)
03. Tea For Two (3:15)
04. Christmas Swing (2:51)
05. Stephen's Blues (3:16)
06. Sugar (3:04)
07. Sweet Georgia Brown (3:16)
08. Tea For Two (2:49)
09. Blues (3:03)
10. Easy Going (3:02)
11. Harlem Swing (2:36)
12. Sweet Sue (2:31)
13. I'm Coming Virginia (3:04)
14. Farewell Blues (3:14)
 
Exact Audio Copy V1.0 beta 2 from 29. April 2011

EAC extraction logfile from 25. June 2011, 22:19

Django Reinhardt / Djangologie 1928-1950 (Disc 07)

Used drive : Optiarc DVD-ROM DDU1675S Adapter: 3 ID: 0

Read mode : SecureUtilize accurate stream : YesDefeat audio cache : YesMake use of C2 pointers : No

Read offset correction : 6Overread into Lead-In and Lead-Out : NoFill up missing offset samples with silence : YesDelete leading and trailing silent blocks : NoNull samples used in CRC calculations : YesUsed interface : Installed external ASPI interfaceGap handling : Appended to previous track

Used output format : User Defined EncoderSelected bitrate : 896 kBit/sQuality : HighAdd ID3 tag : NoCommand line compressor : C:\Programme\Exact Audio Copy\FLAC\FLAC.EXEAdditional command line options : -6 -V -T "ARTIST=%artist%" -T "TITLE=%title%" -T "ALBUM=%albumtitle%" -T "DATE=%year%" -T "TRACKNUMBER=%tracknr%" -T "GENRE=%genre%" -T "COMMENT=%comment%" %hascover%--picture="%coverfile%"%hascover% %source% -o %dest%

TOC of the extracted CD

Track | Start | Length | Start sector | End sector --------------------------------------------------------- 1 | 0:00.00 | 2:37.16 | 0 | 11790 2 | 2:37.16 | 3:05.72 | 11791 | 25737 3 | 5:43.13 | 3:15.04 | 25738 | 40366 4 | 8:58.17 | 2:51.12 | 40367 | 53203 5 | 11:49.29 | 3:16.22 | 53204 | 67925 6 | 15:05.51 | 3:03.55 | 67926 | 81705 7 | 18:09.31 | 3:15.58 | 81706 | 96388 8 | 21:25.14 | 2:48.61 | 96389 | 109049 9 | 24:14.00 | 3:02.70 | 109050 | 122769 10 | 27:16.70 | 3:01.69 | 122770 | 136413 11 | 30:18.64 | 2:36.06 | 136414 | 148119 12 | 32:54.70 | 2:30.46 | 148120 | 159415 13 | 35:25.41 | 3:04.37 | 159416 | 173252 14 | 38:30.03 | 3:14.30 | 173253 | 187832

Track 1

Filename J:\Ongaku\Classical\Django Reinhardt\[FLAC] [2009.11.27] Djangologie 1928-1950\Disc 07 - 1937~1938\01 - Organ Grinder's Swing.wav

Pre-gap length 0:00:02.00

Peak level 99.2 % Extraction speed 3.1 X Track quality 100.0 % Test CRC 8D61E9B6 Copy CRC 8D61E9B6 Track not present in AccurateRip database Copy OK

Track 2

Filename J:\Ongaku\Classical\Django Reinhardt\[FLAC] [2009.11.27] Djangologie 1928-1950\Disc 07 - 1937~1938\02 - You Rascal You.wav

Pre-gap length 0:00:02.00

Peak level 99.2 % Extraction speed 3.5 X Track quality 100.0 % Test CRC 27044A5C Copy CRC 27044A5C Track not present in AccurateRip database Copy OK

Track 3

Filename J:\Ongaku\Classical\Django Reinhardt\[FLAC] [2009.11.27] Djangologie 1928-1950\Disc 07 - 1937~1938\03 - Tea For Two.wav

Pre-gap length 0:00:02.00

Peak level 99.2 % Extraction speed 3.8 X Track quality 100.0 % Test CRC D9949953 Copy CRC D9949953 Track not present in AccurateRip database Copy OK

Track 4

Filename J:\Ongaku\Classical\Django Reinhardt\[FLAC] [2009.11.27] Djangologie 1928-1950\Disc 07 - 1937~1938\04 - Christmas Swing.wav

Pre-gap length 0:00:02.00

Peak level 99.2 % Extraction speed 3.9 X Track quality 100.0 % Test CRC 799F683F Copy CRC 799F683F Track not present in AccurateRip database Copy OK

Track 5

Filename J:\Ongaku\Classical\Django Reinhardt\[FLAC] [2009.11.27] Djangologie 1928-1950\Disc 07 - 1937~1938\05 - Stephen's Blues.wav

Pre-gap length 0:00:02.00

Peak level 99.2 % Extraction speed 4.2 X Track quality 100.0 % Test CRC 7C6647D6 Copy CRC 7C6647D6 Track not present in AccurateRip database Copy OK

Track 6

Filename J:\Ongaku\Classical\Django Reinhardt\[FLAC] [2009.11.27] Djangologie 1928-1950\Disc 07 - 1937~1938\06 - Sugar.wav

Pre-gap length 0:00:02.00

Peak level 99.2 % Extraction speed 4.4 X Track quality 100.0 % Test CRC A7423945 Copy CRC A7423945 Track not present in AccurateRip database Copy OK

Track 7

Filename J:\Ongaku\Classical\Django Reinhardt\[FLAC] [2009.11.27] Djangologie 1928-1950\Disc 07 - 1937~1938\07 - Sweet Georgia Brown.wav

Pre-gap length 0:00:02.00

Peak level 99.2 % Extraction speed 4.6 X Track quality 100.0 % Test CRC 8E6693FF Copy CRC 8E6693FF Track not present in AccurateRip database Copy OK

Track 8

Filename J:\Ongaku\Classical\Django Reinhardt\[FLAC] [2009.11.27] Djangologie 1928-1950\Disc 07 - 1937~1938\08 - Tea For Two.wav

Pre-gap length 0:00:02.00

Peak level 99.2 % Extraction speed 4.4 X Track quality 100.0 % Test CRC D0EC3038 Copy CRC D0EC3038 Track not present in AccurateRip database Copy OK

Track 9

Filename J:\Ongaku\Classical\Django Reinhardt\[FLAC] [2009.11.27] Djangologie 1928-1950\Disc 07 - 1937~1938\09 - Blues.wav

Pre-gap length 0:00:02.00

Peak level 99.2 % Extraction speed 3.2 X Track quality 99.9 % Test CRC 96C0729E Copy CRC 96C0729E Track not present in AccurateRip database Copy OK

Track 10

Filename J:\Ongaku\Classical\Django Reinhardt\[FLAC] [2009.11.27] Djangologie 1928-1950\Disc 07 - 1937~1938\10 - Easy Going.wav

Pre-gap length 0:00:02.00

Peak level 99.2 % Extraction speed 3.0 X Track quality 99.9 % Test CRC DCC53864 Copy CRC DCC53864 Track not present in AccurateRip database Copy OK

Track 11

Filename J:\Ongaku\Classical\Django Reinhardt\[FLAC] [2009.11.27] Djangologie 1928-1950\Disc 07 - 1937~1938\11 - Harlem Swing.wav

Pre-gap length 0:00:02.00

Peak level 99.2 % Extraction speed 3.7 X Track quality 100.0 % Test CRC 567E00A1 Copy CRC 567E00A1 Track not present in AccurateRip database Copy OK

Track 12

Filename J:\Ongaku\Classical\Django Reinhardt\[FLAC] [2009.11.27] Djangologie 1928-1950\Disc 07 - 1937~1938\12 - Sweet Sue.wav

Pre-gap length 0:00:02.00

Peak level 99.2 % Extraction speed 3.4 X Track quality 100.0 % Test CRC 83D65179 Copy CRC 83D65179 Track not present in AccurateRip database Copy OK

Track 13

Filename J:\Ongaku\Classical\Django Reinhardt\[FLAC] [2009.11.27] Djangologie 1928-1950\Disc 07 - 1937~1938\13 - I'm Coming Virginia.wav

Pre-gap length 0:00:02.00

Peak level 99.2 % Extraction speed 3.6 X Track quality 100.0 % Test CRC D81DE2CD Copy CRC D81DE2CD Track not present in AccurateRip database Copy OK

Track 14

Filename J:\Ongaku\Classical\Django Reinhardt\[FLAC] [2009.11.27] Djangologie 1928-1950\Disc 07 - 1937~1938\14 - Farewell Blues.wav

Pre-gap length 0:00:02.00

Peak level 99.2 % Extraction speed 3.8 X Track quality 100.0 % Test CRC E9202523 Copy CRC E9202523 Track not present in AccurateRip database Copy OK

None of the tracks are present in the AccurateRip database

No errors occurred

End of status report

---- CUETools DB Plugin V2.1.2

[CTDB TOCID: XF7BX4hLpdPQyNQ92NVSMRGkzCM-] disk not present in database, Submit result: XF7BX4hLpdPQyNQ92NVSMRGkzCM- has been uploaded
 
REM GENRE "Gypsy Jazz"REM DATE 2009REM DISCID B409C80EREM COMMENT "ExactAudioCopy v1.0b2"PERFORMER "Django Reinhardt"TITLE "Djangologie 1928-1950 (Disc 07)"FILE "01 - Organ Grinder's Swing.wav" WAVE TRACK 01 AUDIO TITLE "Organ Grinder's Swing" PERFORMER "Django Reinhardt" INDEX 01 00:00:00 TRACK 02 AUDIO TITLE "You Rascal You" PERFORMER "Django Reinhardt" INDEX 00 02:35:16FILE "02 - You Rascal You.wav" WAVE INDEX 01 00:00:00 TRACK 03 AUDIO TITLE "Tea For Two" PERFORMER "Django Reinhardt" INDEX 00 03:03:72FILE "03 - Tea For Two.wav" WAVE INDEX 01 00:00:00 TRACK 04 AUDIO TITLE "Christmas Swing" PERFORMER "Django Reinhardt" INDEX 00 03:13:04FILE "04 - Christmas Swing.wav" WAVE INDEX 01 00:00:00 TRACK 05 AUDIO TITLE "Stephen's Blues" PERFORMER "Django Reinhardt" INDEX 00 02:49:12FILE "05 - Stephen's Blues.wav" WAVE INDEX 01 00:00:00 TRACK 06 AUDIO TITLE "Sugar" PERFORMER "Django Reinhardt" INDEX 00 03:14:22FILE "06 - Sugar.wav" WAVE INDEX 01 00:00:00 TRACK 07 AUDIO TITLE "Sweet Georgia Brown" PERFORMER "Django Reinhardt" INDEX 00 03:01:55FILE "07 - Sweet Georgia Brown.wav" WAVE INDEX 01 00:00:00 TRACK 08 AUDIO TITLE "Tea For Two" PERFORMER "Django Reinhardt" INDEX 00 03:13:58FILE "08 - Tea For Two.wav" WAVE INDEX 01 00:00:00 TRACK 09 AUDIO TITLE "Blues" PERFORMER "Django Reinhardt" INDEX 00 02:46:61FILE "09 - Blues.wav" WAVE INDEX 01 00:00:00 TRACK 10 AUDIO TITLE "Easy Going" PERFORMER "Django Reinhardt" INDEX 00 03:00:70FILE "10 - Easy Going.wav" WAVE INDEX 01 00:00:00 TRACK 11 AUDIO TITLE "Harlem Swing" PERFORMER "Django Reinhardt" INDEX 00 02:59:69FILE "11 - Harlem Swing.wav" WAVE INDEX 01 00:00:00 TRACK 12 AUDIO TITLE "Sweet Sue" PERFORMER "Django Reinhardt" INDEX 00 02:34:06FILE "12 - Sweet Sue.wav" WAVE INDEX 01 00:00:00 TRACK 13 AUDIO TITLE "I'm Coming Virginia" PERFORMER "Django Reinhardt" INDEX 00 02:28:46FILE "13 - I'm Coming Virginia.wav" WAVE INDEX 01 00:00:00 TRACK 14 AUDIO TITLE "Farewell Blues" PERFORMER "Django Reinhardt" INDEX 00 03:02:37FILE "14 - Farewell Blues.wav" WAVE INDEX 01 00:00:00
Продолжительность: 38:43

Треклист:
01. Blues Light Blues (3:06)
02. Body And Soul (3:06)
03. Lover Come Back To Me (2:33)
04. My Melancholy Baby (3:16)
05. I Got Rhythm (2:54)
06. Montmartre (2:26)
07. Low Cotton (3:02)
08. Finesse (2:21)
09. I Know That You Know (2:33)
10. Solid Old Man (3:03)
11. Dream Ship (2:51)
12. I Can't Believe That You're In Love With Me (2:21)
13. Stockholm (2:48)
14. Younger Generation (2:23)
 
Exact Audio Copy V1.0 beta 2 from 29. April 2011

EAC extraction logfile from 25. June 2011, 23:00

Django Reinhardt / Djangologie 1928-1950 (Disc 08)

Used drive : Optiarc DVD-ROM DDU1675S Adapter: 3 ID: 0

Read mode : SecureUtilize accurate stream : YesDefeat audio cache : YesMake use of C2 pointers : No

Read offset correction : 6Overread into Lead-In and Lead-Out : NoFill up missing offset samples with silence : YesDelete leading and trailing silent blocks : NoNull samples used in CRC calculations : YesUsed interface : Installed external ASPI interfaceGap handling : Appended to previous track

Used output format : User Defined EncoderSelected bitrate : 896 kBit/sQuality : HighAdd ID3 tag : NoCommand line compressor : C:\Programme\Exact Audio Copy\FLAC\FLAC.EXEAdditional command line options : -6 -V -T "ARTIST=%artist%" -T "TITLE=%title%" -T "ALBUM=%albumtitle%" -T "DATE=%year%" -T "TRACKNUMBER=%tracknr%" -T "GENRE=%genre%" -T "COMMENT=%comment%" %hascover%--picture="%coverfile%"%hascover% %source% -o %dest%

TOC of the extracted CD

Track | Start | Length | Start sector | End sector --------------------------------------------------------- 1 | 0:00.00 | 3:06.30 | 0 | 13979 2 | 3:06.30 | 3:05.47 | 13980 | 27901 3 | 6:12.02 | 2:33.37 | 27902 | 39413 4 | 8:45.39 | 3:15.64 | 39414 | 54102 5 | 12:01.28 | 2:54.29 | 54103 | 67181 6 | 14:55.57 | 2:25.73 | 67182 | 78129 7 | 17:21.55 | 3:01.69 | 78130 | 91773 8 | 20:23.49 | 2:21.31 | 91774 | 102379 9 | 22:45.05 | 2:33.24 | 102380 | 113878 10 | 25:18.29 | 3:03.16 | 113879 | 127619 11 | 28:21.45 | 2:50.67 | 127620 | 140436 12 | 31:12.37 | 2:20.40 | 140437 | 150976 13 | 33:33.02 | 2:47.54 | 150977 | 163555 14 | 36:20.56 | 2:22.54 | 163556 | 174259

Track 1

Filename J:\Ongaku\Classical\Django Reinhardt\[FLAC] [2009.11.27] Djangologie 1928-1950\Disc 08 - 1938~1939\01 - Blues Light Blues.wav

Pre-gap length 0:00:02.00

Peak level 98.8 % Extraction speed 2.4 X Track quality 100.0 % Test CRC 536EBE05 Copy CRC 536EBE05 Track not present in AccurateRip database Copy OK

Track 2

Filename J:\Ongaku\Classical\Django Reinhardt\[FLAC] [2009.11.27] Djangologie 1928-1950\Disc 08 - 1938~1939\02 - Body And Soul.wav

Pre-gap length 0:00:02.00

Peak level 98.8 % Extraction speed 2.6 X Track quality 100.0 % Test CRC 50289271 Copy CRC 50289271 Track not present in AccurateRip database Copy OK

Track 3

Filename J:\Ongaku\Classical\Django Reinhardt\[FLAC] [2009.11.27] Djangologie 1928-1950\Disc 08 - 1938~1939\03 - Lover Come Back To Me.wav

Pre-gap length 0:00:02.00

Peak level 98.8 % Extraction speed 2.7 X Track quality 100.0 % Test CRC C346BD6F Copy CRC C346BD6F Track not present in AccurateRip database Copy OK

Track 4

Filename J:\Ongaku\Classical\Django Reinhardt\[FLAC] [2009.11.27] Djangologie 1928-1950\Disc 08 - 1938~1939\04 - My Melancholy Baby.wav

Pre-gap length 0:00:02.00

Peak level 98.8 % Extraction speed 2.6 X Track quality 99.9 % Test CRC C852AF2B Copy CRC C852AF2B Track not present in AccurateRip database Copy OK

Track 5

Filename J:\Ongaku\Classical\Django Reinhardt\[FLAC] [2009.11.27] Djangologie 1928-1950\Disc 08 - 1938~1939\05 - I Got Rhythm.wav

Pre-gap length 0:00:02.00

Peak level 98.8 % Extraction speed 3.1 X Track quality 100.0 % Test CRC 4B0695B5 Copy CRC 4B0695B5 Track not present in AccurateRip database Copy OK

Track 6

Filename J:\Ongaku\Classical\Django Reinhardt\[FLAC] [2009.11.27] Djangologie 1928-1950\Disc 08 - 1938~1939\06 - Montmartre.wav

Pre-gap length 0:00:02.00

Peak level 98.8 % Extraction speed 3.2 X Track quality 100.0 % Test CRC EA42B359 Copy CRC EA42B359 Track not present in AccurateRip database Copy OK

Track 7

Filename J:\Ongaku\Classical\Django Reinhardt\[FLAC] [2009.11.27] Djangologie 1928-1950\Disc 08 - 1938~1939\07 - Low Cotton.wav

Pre-gap length 0:00:02.00

Peak level 98.8 % Extraction speed 2.9 X Track quality 99.9 % Test CRC D04BD754 Copy CRC D04BD754 Track not present in AccurateRip database Copy OK

Track 8

Filename J:\Ongaku\Classical\Django Reinhardt\[FLAC] [2009.11.27] Djangologie 1928-1950\Disc 08 - 1938~1939\08 - Finesse.wav

Pre-gap length 0:00:02.00

Peak level 98.8 % Extraction speed 2.8 X Track quality 99.9 % Test CRC F388DCF9 Copy CRC F388DCF9 Track not present in AccurateRip database Copy OK

Track 9

Filename J:\Ongaku\Classical\Django Reinhardt\[FLAC] [2009.11.27] Djangologie 1928-1950\Disc 08 - 1938~1939\09 - I Know That You Know.wav

Pre-gap length 0:00:02.00

Peak level 98.8 % Extraction speed 3.5 X Track quality 100.0 % Test CRC 2F0DA95B Copy CRC 2F0DA95B Track not present in AccurateRip database Copy OK

Track 10

Filename J:\Ongaku\Classical\Django Reinhardt\[FLAC] [2009.11.27] Djangologie 1928-1950\Disc 08 - 1938~1939\10 - Solid Old Man.wav

Pre-gap length 0:00:02.00

Peak level 98.8 % Extraction speed 3.7 X Track quality 100.0 % Test CRC CB500AAF Copy CRC CB500AAF Track not present in AccurateRip database Copy OK

Track 11

Filename J:\Ongaku\Classical\Django Reinhardt\[FLAC] [2009.11.27] Djangologie 1928-1950\Disc 08 - 1938~1939\11 - Dream Ship.wav

Pre-gap length 0:00:02.00

Peak level 98.8 % Extraction speed 3.8 X Track quality 100.0 % Test CRC C95E65B6 Copy CRC C95E65B6 Track not present in AccurateRip database Copy OK

Track 12

Filename J:\Ongaku\Classical\Django Reinhardt\[FLAC] [2009.11.27] Djangologie 1928-1950\Disc 08 - 1938~1939\12 - I Can't Believe That You're In Love With Me.wav

Pre-gap length 0:00:02.00

Peak level 98.8 % Extraction speed 3.8 X Track quality 100.0 % Test CRC 768C3947 Copy CRC 768C3947 Track not present in AccurateRip database Copy OK

Track 13

Filename J:\Ongaku\Classical\Django Reinhardt\[FLAC] [2009.11.27] Djangologie 1928-1950\Disc 08 - 1938~1939\13 - Stockholm.wav

Pre-gap length 0:00:02.00

Peak level 98.8 % Extraction speed 4.0 X Track quality 100.0 % Test CRC 529C5C6E Copy CRC 529C5C6E Track not present in AccurateRip database Copy OK

Track 14

Filename J:\Ongaku\Classical\Django Reinhardt\[FLAC] [2009.11.27] Djangologie 1928-1950\Disc 08 - 1938~1939\14 - Younger Generation.wav

Pre-gap length 0:00:02.00

Peak level 98.8 % Extraction speed 4.0 X Track quality 100.0 % Test CRC 72AD3A17 Copy CRC 72AD3A17 Track not present in AccurateRip database Copy OK

None of the tracks are present in the AccurateRip database

No errors occurred

End of status report

---- CUETools DB Plugin V2.1.2

[CTDB TOCID: 68BEbe51eBy70cLWsw1GBKSIFCY-] disk not present in database, Submit result: 68BEbe51eBy70cLWsw1GBKSIFCY- has been uploaded
 
REM GENRE "Gypsy Jazz"REM DATE 2009REM DISCID B209130EREM COMMENT "ExactAudioCopy v1.0b2"PERFORMER "Django Reinhardt"TITLE "Djangologie 1928-1950 (Disc 08)"FILE "01 - Blues Light Blues.wav" WAVE TRACK 01 AUDIO TITLE "Blues Light Blues" PERFORMER "Django Reinhardt" INDEX 01 00:00:00 TRACK 02 AUDIO TITLE "Body And Soul" PERFORMER "Django Reinhardt" INDEX 00 03:04:30FILE "02 - Body And Soul.wav" WAVE INDEX 01 00:00:00 TRACK 03 AUDIO TITLE "Lover Come Back To Me" PERFORMER "Django Reinhardt" INDEX 00 03:03:47FILE "03 - Lover Come Back To Me.wav" WAVE INDEX 01 00:00:00 TRACK 04 AUDIO TITLE "My Melancholy Baby" PERFORMER "Django Reinhardt" INDEX 00 02:31:37FILE "04 - My Melancholy Baby.wav" WAVE INDEX 01 00:00:00 TRACK 05 AUDIO TITLE "I Got Rhythm" PERFORMER "Django Reinhardt" INDEX 00 03:13:64FILE "05 - I Got Rhythm.wav" WAVE INDEX 01 00:00:00 TRACK 06 AUDIO TITLE "Montmartre" PERFORMER "Django Reinhardt" INDEX 00 02:52:29FILE "06 - Montmartre.wav" WAVE INDEX 01 00:00:00 TRACK 07 AUDIO TITLE "Low Cotton" PERFORMER "Django Reinhardt" INDEX 00 02:23:73FILE "07 - Low Cotton.wav" WAVE INDEX 01 00:00:00 TRACK 08 AUDIO TITLE "Finesse" PERFORMER "Django Reinhardt" INDEX 00 02:59:69FILE "08 - Finesse.wav" WAVE INDEX 01 00:00:00 TRACK 09 AUDIO TITLE "I Know That You Know" PERFORMER "Django Reinhardt" INDEX 00 02:19:31FILE "09 - I Know That You Know.wav" WAVE INDEX 01 00:00:00 TRACK 10 AUDIO TITLE "Solid Old Man" PERFORMER "Django Reinhardt" INDEX 00 02:31:24FILE "10 - Solid Old Man.wav" WAVE INDEX 01 00:00:00 TRACK 11 AUDIO TITLE "Dream Ship" PERFORMER "Django Reinhardt" INDEX 00 03:01:16FILE "11 - Dream Ship.wav" WAVE INDEX 01 00:00:00 TRACK 12 AUDIO TITLE "I Can't Believe That You're In Love With Me" PERFORMER "Django Reinhardt" INDEX 00 02:48:67FILE "12 - I Can't Believe That You're In Love With Me.wav" WAVE INDEX 01 00:00:00 TRACK 13 AUDIO TITLE "Stockholm" PERFORMER "Django Reinhardt" INDEX 00 02:18:40FILE "13 - Stockholm.wav" WAVE INDEX 01 00:00:00 TRACK 14 AUDIO TITLE "Younger Generation" PERFORMER "Django Reinhardt" INDEX 00 02:45:54FILE "14 - Younger Generation.wav" WAVE INDEX 01 00:00:00
Продолжительность: 37:32

Треклист:
01. I'll See You In My Dreams (2:32)
02. Echoes Of Spain (3:06)
03. Out Of Nowhere (3:17)
04. Baby (2:39)
05. Naguine (2:28)
06. Scatterbrain (2:21)
07. Jumpin' At The Woodside (2:58)
08. Boogie-Woogie part.1 (2:54)
09. Boogie-Woogie part.2 (2:35)
10. Blue Skies (2:38)
11. Stomp (2:19)
12. Rosetta (2:28)
13. Sugar (2:41)
14. A Pretty Girl Is Like A Melody (2:37)
 
Exact Audio Copy V1.0 beta 2 from 29. April 2011

EAC extraction logfile from 25. June 2011, 23:51

Django Reinhardt / Djangologie 1928-1950 (Disc 09)

Used drive : Optiarc DVD-ROM DDU1675S Adapter: 3 ID: 0

Read mode : SecureUtilize accurate stream : YesDefeat audio cache : YesMake use of C2 pointers : No

Read offset correction : 6Overread into Lead-In and Lead-Out : NoFill up missing offset samples with silence : YesDelete leading and trailing silent blocks : NoNull samples used in CRC calculations : YesUsed interface : Installed external ASPI interfaceGap handling : Appended to previous track

Used output format : User Defined EncoderSelected bitrate : 896 kBit/sQuality : HighAdd ID3 tag : NoCommand line compressor : C:\Programme\Exact Audio Copy\FLAC\FLAC.EXEAdditional command line options : -6 -V -T "ARTIST=%artist%" -T "TITLE=%title%" -T "ALBUM=%albumtitle%" -T "DATE=%year%" -T "TRACKNUMBER=%tracknr%" -T "GENRE=%genre%" -T "COMMENT=%comment%" %hascover%--picture="%coverfile%"%hascover% %source% -o %dest%

TOC of the extracted CD

Track | Start | Length | Start sector | End sector --------------------------------------------------------- 1 | 0:00.00 | 2:31.59 | 0 | 11383 2 | 2:31.59 | 3:06.26 | 11384 | 25359 3 | 5:38.10 | 3:16.51 | 25360 | 40110 4 | 8:54.61 | 2:39.19 | 40111 | 52054 5 | 11:34.05 | 2:27.48 | 52055 | 63127 6 | 14:01.53 | 2:20.59 | 63128 | 73686 7 | 16:22.37 | 2:57.55 | 73687 | 87016 8 | 19:20.17 | 2:54.24 | 87017 | 100090 9 | 22:14.41 | 2:34.50 | 100091 | 111690 10 | 24:49.16 | 2:37.51 | 111691 | 123516 11 | 27:26.67 | 2:19.28 | 123517 | 133969 12 | 29:46.20 | 2:27.39 | 133970 | 145033 13 | 32:13.59 | 2:40.54 | 145034 | 157087 14 | 34:54.38 | 2:37.05 | 157088 | 168867

Track 1

Filename J:\Ongaku\Classical\Django Reinhardt\[FLAC] [2009.11.27] Djangologie 1928-1950\Disc 09 - 1939~1940\01 - I'll See You In My Dreams.wav

Pre-gap length 0:00:02.00

Peak level 98.8 % Extraction speed 2.3 X Track quality 100.0 % Test CRC 75F79CD7 Copy CRC 75F79CD7 Track not present in AccurateRip database Copy OK

Track 2

Filename J:\Ongaku\Classical\Django Reinhardt\[FLAC] [2009.11.27] Djangologie 1928-1950\Disc 09 - 1939~1940\02 - Echoes Of Spain.wav

Pre-gap length 0:00:02.00

Peak level 98.8 % Extraction speed 2.6 X Track quality 100.0 % Test CRC 1FFF6A46 Copy CRC 1FFF6A46 Track not present in AccurateRip database Copy OK

Track 3

Filename J:\Ongaku\Classical\Django Reinhardt\[FLAC] [2009.11.27] Djangologie 1928-1950\Disc 09 - 1939~1940\03 - Out Of Nowhere.wav

Pre-gap length 0:00:02.00

Peak level 98.8 % Extraction speed 2.8 X Track quality 100.0 % Test CRC DDAC1F90 Copy CRC DDAC1F90 Track not present in AccurateRip database Copy OK

Track 4

Filename J:\Ongaku\Classical\Django Reinhardt\[FLAC] [2009.11.27] Djangologie 1928-1950\Disc 09 - 1939~1940\04 - Baby.wav

Pre-gap length 0:00:02.00

Peak level 98.8 % Extraction speed 2.9 X Track quality 100.0 % Test CRC D5245C78 Copy CRC D5245C78 Track not present in AccurateRip database Copy OK

Track 5

Filename J:\Ongaku\Classical\Django Reinhardt\[FLAC] [2009.11.27] Djangologie 1928-1950\Disc 09 - 1939~1940\05 - Naguine.wav

Pre-gap length 0:00:02.00

Peak level 98.8 % Extraction speed 3.0 X Track quality 100.0 % Test CRC 448DB958 Copy CRC 448DB958 Track not present in AccurateRip database Copy OK

Track 6

Filename J:\Ongaku\Classical\Django Reinhardt\[FLAC] [2009.11.27] Djangologie 1928-1950\Disc 09 - 1939~1940\06 - Scatterbrain.wav

Pre-gap length 0:00:02.00

Peak level 98.8 % Extraction speed 3.0 X Track quality 100.0 % Test CRC A66244F0 Copy CRC A66244F0 Track not present in AccurateRip database Copy OK

Track 7

Filename J:\Ongaku\Classical\Django Reinhardt\[FLAC] [2009.11.27] Djangologie 1928-1950\Disc 09 - 1939~1940\07 - Jumpin' At The Woodside.wav

Pre-gap length 0:00:02.00

Peak level 98.8 % Extraction speed 3.4 X Track quality 100.0 % Test CRC 38ACCA26 Copy CRC 38ACCA26 Track not present in AccurateRip database Copy OK

Track 8

Filename J:\Ongaku\Classical\Django Reinhardt\[FLAC] [2009.11.27] Djangologie 1928-1950\Disc 09 - 1939~1940\08 - Boogie-Woogie part.1.wav

Pre-gap length 0:00:02.00

Peak level 98.8 % Extraction speed 3.4 X Track quality 100.0 % Test CRC 7ECE8806 Copy CRC 7ECE8806 Track not present in AccurateRip database Copy OK

Track 9

Filename J:\Ongaku\Classical\Django Reinhardt\[FLAC] [2009.11.27] Djangologie 1928-1950\Disc 09 - 1939~1940\09 - Boogie-Woogie part.2.wav

Pre-gap length 0:00:02.00

Peak level 98.8 % Extraction speed 2.9 X Track quality 99.9 % Test CRC B5266A20 Copy CRC B5266A20 Track not present in AccurateRip database Copy OK

Track 10

Filename J:\Ongaku\Classical\Django Reinhardt\[FLAC] [2009.11.27] Djangologie 1928-1950\Disc 09 - 1939~1940\10 - Blue Skies.wav

Pre-gap length 0:00:02.00

Peak level 98.8 % Extraction speed 3.0 X Track quality 99.9 % Test CRC E71BFDD0 Copy CRC E71BFDD0 Track not present in AccurateRip database Copy OK

Track 11

Filename J:\Ongaku\Classical\Django Reinhardt\[FLAC] [2009.11.27] Djangologie 1928-1950\Disc 09 - 1939~1940\11 - Stomp.wav

Pre-gap length 0:00:02.00

Peak level 98.8 % Extraction speed 3.7 X Track quality 100.0 % Test CRC D84056B7 Copy CRC D84056B7 Track not present in AccurateRip database Copy OK

Track 12

Filename J:\Ongaku\Classical\Django Reinhardt\[FLAC] [2009.11.27] Djangologie 1928-1950\Disc 09 - 1939~1940\12 - Rosetta.wav

Pre-gap length 0:00:02.00

Peak level 98.8 % Extraction speed 3.8 X Track quality 100.0 % Test CRC C8DB4D98 Copy CRC C8DB4D98 Track not present in AccurateRip database Copy OK

Track 13

Filename J:\Ongaku\Classical\Django Reinhardt\[FLAC] [2009.11.27] Djangologie 1928-1950\Disc 09 - 1939~1940\13 - Sugar.wav

Pre-gap length 0:00:02.00

Peak level 98.8 % Extraction speed 3.9 X Track quality 100.0 % Test CRC A249F50F Copy CRC A249F50F Track not present in AccurateRip database Copy OK

Track 14

Filename J:\Ongaku\Classical\Django Reinhardt\[FLAC] [2009.11.27] Djangologie 1928-1950\Disc 09 - 1939~1940\14 - A Pretty Girl Is Like A Melody.wav

Pre-gap length 0:00:02.00

Peak level 98.8 % Extraction speed 3.4 X Track quality 99.9 % Test CRC 1444A5BA Copy CRC 1444A5BA Track not present in AccurateRip database Copy OK

None of the tracks are present in the AccurateRip database

No errors occurred

End of status report

---- CUETools DB Plugin V2.1.2

[CTDB TOCID: mW87obt3TdqB8_GYtAjeCXgHPpk-] disk not present in database, Submit result: database access error: The operation has timed out
 
REM GENRE "Gypsy Jazz"REM DATE 2009REM DISCID CD08CB0EREM COMMENT "ExactAudioCopy v1.0b2"PERFORMER "Django Reinhardt"TITLE "Djangologie 1928-1950 (Disc 09)"FILE "01 - I'll See You In My Dreams.wav" WAVE TRACK 01 AUDIO TITLE "I'll See You In My Dreams" PERFORMER "Django Reinhardt" INDEX 01 00:00:00 TRACK 02 AUDIO TITLE "Echoes Of Spain" PERFORMER "Django Reinhardt" INDEX 00 02:29:59FILE "02 - Echoes Of Spain.wav" WAVE INDEX 01 00:00:00 TRACK 03 AUDIO TITLE "Out Of Nowhere" PERFORMER "Django Reinhardt" INDEX 00 03:04:26FILE "03 - Out Of Nowhere.wav" WAVE INDEX 01 00:00:00 TRACK 04 AUDIO TITLE "Baby" PERFORMER "Django Reinhardt" INDEX 00 03:14:51FILE "04 - Baby.wav" WAVE INDEX 01 00:00:00 TRACK 05 AUDIO TITLE "Naguine" PERFORMER "Django Reinhardt" INDEX 00 02:37:19FILE "05 - Naguine.wav" WAVE INDEX 01 00:00:00 TRACK 06 AUDIO TITLE "Scatterbrain" PERFORMER "Django Reinhardt" INDEX 00 02:25:48FILE "06 - Scatterbrain.wav" WAVE INDEX 01 00:00:00 TRACK 07 AUDIO TITLE "Jumpin' At The Woodside" PERFORMER "Django Reinhardt" INDEX 00 02:18:59FILE "07 - Jumpin' At The Woodside.wav" WAVE INDEX 01 00:00:00 TRACK 08 AUDIO TITLE "Boogie-Woogie part.1" PERFORMER "Django Reinhardt" INDEX 00 02:55:55FILE "08 - Boogie-Woogie part.1.wav" WAVE INDEX 01 00:00:00 TRACK 09 AUDIO TITLE "Boogie-Woogie part.2" PERFORMER "Django Reinhardt" INDEX 00 02:52:24FILE "09 - Boogie-Woogie part.2.wav" WAVE INDEX 01 00:00:00 TRACK 10 AUDIO TITLE "Blue Skies" PERFORMER "Django Reinhardt" INDEX 00 02:32:50FILE "10 - Blue Skies.wav" WAVE INDEX 01 00:00:00 TRACK 11 AUDIO TITLE "Stomp" PERFORMER "Django Reinhardt" INDEX 00 02:35:51FILE "11 - Stomp.wav" WAVE INDEX 01 00:00:00 TRACK 12 AUDIO TITLE "Rosetta" PERFORMER "Django Reinhardt" INDEX 00 02:17:28FILE "12 - Rosetta.wav" WAVE INDEX 01 00:00:00 TRACK 13 AUDIO TITLE "Sugar" PERFORMER "Django Reinhardt" INDEX 00 02:25:39FILE "13 - Sugar.wav" WAVE INDEX 01 00:00:00 TRACK 14 AUDIO TITLE "A Pretty Girl Is Like A Melody" PERFORMER "Django Reinhardt" INDEX 00 02:38:54FILE "14 - A Pretty Girl Is Like A Melody.wav" WAVE INDEX 01 00:00:00
Продолжительность: 36:24

Треклист:
01. Margie (2:15)
02. Tears (2:48)
03. Limehouse Blues (2:28)
04. Daphne (2:50)
05. Jimmy's Bar (2:51)
06. Rhythm Futur (2:40)
07. Begin The Beguine (2:53)
08. Blues (3:09)
09. Coucou (extrait) (0:52)
10. Indecision (3:04)
11. Tiger Rag (2:46)
12. Quatre Tickets (2:35)
13. Le Sheik (2:19)
14. Noel Blues (2:56)
 
Exact Audio Copy V1.0 beta 2 from 29. April 2011

EAC extraction logfile from 26. June 2011, 1:01

Django Reinhardt / Djangologie 1928-1950 (Disc 10)

Used drive : Optiarc DVD-ROM DDU1675S Adapter: 3 ID: 0

Read mode : SecureUtilize accurate stream : YesDefeat audio cache : YesMake use of C2 pointers : No

Read offset correction : 6Overread into Lead-In and Lead-Out : NoFill up missing offset samples with silence : YesDelete leading and trailing silent blocks : NoNull samples used in CRC calculations : YesUsed interface : Installed external ASPI interfaceGap handling : Appended to previous track

Used output format : User Defined EncoderSelected bitrate : 896 kBit/sQuality : HighAdd ID3 tag : NoCommand line compressor : C:\Programme\Exact Audio Copy\FLAC\FLAC.EXEAdditional command line options : -6 -V -T "ARTIST=%artist%" -T "TITLE=%title%" -T "ALBUM=%albumtitle%" -T "DATE=%year%" -T "TRACKNUMBER=%tracknr%" -T "GENRE=%genre%" -T "COMMENT=%comment%" %hascover%--picture="%coverfile%"%hascover% %source% -o %dest%

TOC of the extracted CD

Track | Start | Length | Start sector | End sector --------------------------------------------------------- 1 | 0:00.00 | 2:14.53 | 0 | 10102 2 | 2:14.53 | 2:47.54 | 10103 | 22681 3 | 5:02.32 | 2:28.01 | 22682 | 33782 4 | 7:30.33 | 2:50.23 | 33783 | 46555 5 | 10:20.56 | 2:50.41 | 46556 | 59346 6 | 13:11.22 | 2:40.28 | 59347 | 71374 7 | 15:51.50 | 2:52.39 | 71375 | 84313 8 | 18:44.14 | 3:09.23 | 84314 | 98511 9 | 21:53.37 | 0:51.59 | 98512 | 102395 10 | 22:45.21 | 3:03.41 | 102396 | 116161 11 | 25:48.62 | 2:45.46 | 116162 | 128582 12 | 28:34.33 | 2:35.10 | 128583 | 140217 13 | 31:09.43 | 2:18.40 | 140218 | 150607 14 | 33:28.08 | 2:56.26 | 150608 | 163833

Track 1

Filename J:\Ongaku\Classical\Django Reinhardt\[FLAC] [2009.11.27] Djangologie 1928-1950\Disc 10 - 1940\01 - Margie.wav

Pre-gap length 0:00:02.00

Peak level 98.8 % Extraction speed 2.2 X Track quality 100.0 % Test CRC 7CCC42F3 Copy CRC 7CCC42F3 Track not present in AccurateRip database Copy OK

Track 2

Filename J:\Ongaku\Classical\Django Reinhardt\[FLAC] [2009.11.27] Djangologie 1928-1950\Disc 10 - 1940\02 - Tears.wav

Pre-gap length 0:00:02.00

Peak level 98.8 % Extraction speed 2.5 X Track quality 100.0 % Test CRC 9E860090 Copy CRC 9E860090 Track not present in AccurateRip database Copy OK

Track 3

Filename J:\Ongaku\Classical\Django Reinhardt\[FLAC] [2009.11.27] Djangologie 1928-1950\Disc 10 - 1940\03 - Limehouse Blues.wav

Pre-gap length 0:00:02.00

Peak level 98.8 % Extraction speed 2.6 X Track quality 100.0 % Test CRC 6ABF1A44 Copy CRC 6ABF1A44 Track not present in AccurateRip database Copy OK

Track 4

Filename J:\Ongaku\Classical\Django Reinhardt\[FLAC] [2009.11.27] Djangologie 1928-1950\Disc 10 - 1940\04 - Daphne.wav

Pre-gap length 0:00:02.00

Peak level 98.8 % Extraction speed 2.4 X Track quality 99.9 % Test CRC A62238D1 Copy CRC A62238D1 Track not present in AccurateRip database Copy OK

Track 5

Filename J:\Ongaku\Classical\Django Reinhardt\[FLAC] [2009.11.27] Djangologie 1928-1950\Disc 10 - 1940\05 - Jimmy's Bar.wav

Pre-gap length 0:00:02.00

Peak level 98.8 % Extraction speed 3.0 X Track quality 100.0 % Test CRC B54D129B Copy CRC B54D129B Track not present in AccurateRip database Copy OK

Track 6

Filename J:\Ongaku\Classical\Django Reinhardt\[FLAC] [2009.11.27] Djangologie 1928-1950\Disc 10 - 1940\06 - Rhythm Futur.wav

Pre-gap length 0:00:02.00

Peak level 98.8 % Extraction speed 3.1 X Track quality 100.0 % Test CRC 7865A270 Copy CRC 7865A270 Track not present in AccurateRip database Copy OK

Track 7

Filename J:\Ongaku\Classical\Django Reinhardt\[FLAC] [2009.11.27] Djangologie 1928-1950\Disc 10 - 1940\07 - Begin The Beguine.wav

Pre-gap length 0:00:02.00

Peak level 98.8 % Extraction speed 3.3 X Track quality 100.0 % Test CRC A477E9CC Copy CRC A477E9CC Track not present in AccurateRip database Copy OK

Track 8

Filename J:\Ongaku\Classical\Django Reinhardt\[FLAC] [2009.11.27] Djangologie 1928-1950\Disc 10 - 1940\08 - Blues.wav

Pre-gap length 0:00:02.00

Peak level 98.8 % Extraction speed 3.5 X Track quality 100.0 % Test CRC B5729C32 Copy CRC B5729C32 Track not present in AccurateRip database Copy OK

Track 9

Filename J:\Ongaku\Classical\Django Reinhardt\[FLAC] [2009.11.27] Djangologie 1928-1950\Disc 10 - 1940\09 - Coucou (extrait).wav

Pre-gap length 0:00:02.00

Peak level 98.8 % Extraction speed 1.7 X Track quality 99.7 % Test CRC 0CB69973 Copy CRC 0CB69973 Track not present in AccurateRip database Copy OK

Track 10

Filename J:\Ongaku\Classical\Django Reinhardt\[FLAC] [2009.11.27] Djangologie 1928-1950\Disc 10 - 1940\10 - Indecision.wav

Pre-gap length 0:00:02.00

Peak level 98.8 % Extraction speed 3.7 X Track quality 100.0 % Test CRC 6B0158FA Copy CRC 6B0158FA Track not present in AccurateRip database Copy OK

Track 11

Filename J:\Ongaku\Classical\Django Reinhardt\[FLAC] [2009.11.27] Djangologie 1928-1950\Disc 10 - 1940\11 - Tiger Rag.wav

Pre-gap length 0:00:02.00

Peak level 98.8 % Extraction speed 3.7 X Track quality 100.0 % Test CRC 4A07424D Copy CRC 4A07424D Track not present in AccurateRip database Copy OK

Track 12

Filename J:\Ongaku\Classical\Django Reinhardt\[FLAC] [2009.11.27] Djangologie 1928-1950\Disc 10 - 1940\12 - Quatre Tickets.wav

Pre-gap length 0:00:02.00

Peak level 98.8 % Extraction speed 3.8 X Track quality 100.0 % Test CRC FFE1B1EE Copy CRC FFE1B1EE Track not present in AccurateRip database Copy OK

Track 13

Filename J:\Ongaku\Classical\Django Reinhardt\[FLAC] [2009.11.27] Djangologie 1928-1950\Disc 10 - 1940\13 - Le Sheik.wav

Pre-gap length 0:00:02.00

Peak level 98.8 % Extraction speed 3.8 X Track quality 100.0 % Test CRC 286302EC Copy CRC 286302EC Track not present in AccurateRip database Copy OK

Track 14

Filename J:\Ongaku\Classical\Django Reinhardt\[FLAC] [2009.11.27] Djangologie 1928-1950\Disc 10 - 1940\14 - Noel Blues.wav

Pre-gap length 0:00:02.00

Peak level 98.8 % Extraction speed 4.1 X Track quality 100.0 % Test CRC C55F02DA Copy CRC C55F02DA Track not present in AccurateRip database Copy OK

None of the tracks are present in the AccurateRip database

No errors occurred

End of status report

---- CUETools DB Plugin V2.1.2

[CTDB TOCID: ZADmxnObDbF8rP1GFqHum1vu68Q-] disk not present in database, Submit result: ZADmxnObDbF8rP1GFqHum1vu68Q- has been uploaded
 
REM GENRE "Gypsy Jazz"REM DATE 2009REM DISCID 9F08880EREM COMMENT "ExactAudioCopy v1.0b2"PERFORMER "Django Reinhardt"TITLE "Djangologie 1928-1950 (Disc 10)"FILE "01 - Margie.wav" WAVE TRACK 01 AUDIO TITLE "Margie" PERFORMER "Django Reinhardt" INDEX 01 00:00:00 TRACK 02 AUDIO TITLE "Tears" PERFORMER "Django Reinhardt" INDEX 00 02:12:53FILE "02 - Tears.wav" WAVE INDEX 01 00:00:00 TRACK 03 AUDIO TITLE "Limehouse Blues" PERFORMER "Django Reinhardt" INDEX 00 02:45:54FILE "03 - Limehouse Blues.wav" WAVE INDEX 01 00:00:00 TRACK 04 AUDIO TITLE "Daphne" PERFORMER "Django Reinhardt" INDEX 00 02:26:01FILE "04 - Daphne.wav" WAVE INDEX 01 00:00:00 TRACK 05 AUDIO TITLE "Jimmy's Bar" PERFORMER "Django Reinhardt" INDEX 00 02:48:23FILE "05 - Jimmy's Bar.wav" WAVE INDEX 01 00:00:00 TRACK 06 AUDIO TITLE "Rhythm Futur" PERFORMER "Django Reinhardt" INDEX 00 02:48:41FILE "06 - Rhythm Futur.wav" WAVE INDEX 01 00:00:00 TRACK 07 AUDIO TITLE "Begin The Beguine" PERFORMER "Django Reinhardt" INDEX 00 02:38:28FILE "07 - Begin The Beguine.wav" WAVE INDEX 01 00:00:00 TRACK 08 AUDIO TITLE "Blues" PERFORMER "Django Reinhardt" INDEX 00 02:50:39FILE "08 - Blues.wav" WAVE INDEX 01 00:00:00 TRACK 09 AUDIO TITLE "Coucou (extrait)" PERFORMER "Django Reinhardt" INDEX 00 03:07:23FILE "09 - Coucou (extrait).wav" WAVE INDEX 01 00:00:00 TRACK 10 AUDIO TITLE "Indecision" PERFORMER "Django Reinhardt" INDEX 00 00:49:59FILE "10 - Indecision.wav" WAVE INDEX 01 00:00:00 TRACK 11 AUDIO TITLE "Tiger Rag" PERFORMER "Django Reinhardt" INDEX 00 03:01:41FILE "11 - Tiger Rag.wav" WAVE INDEX 01 00:00:00 TRACK 12 AUDIO TITLE "Quatre Tickets" PERFORMER "Django Reinhardt" INDEX 00 02:43:46FILE "12 - Quatre Tickets.wav" WAVE INDEX 01 00:00:00 TRACK 13 AUDIO TITLE "Le Sheik" PERFORMER "Django Reinhardt" INDEX 00 02:33:10FILE "13 - Le Sheik.wav" WAVE INDEX 01 00:00:00 TRACK 14 AUDIO TITLE "Noel Blues" PERFORMER "Django Reinhardt" INDEX 00 02:16:40FILE "14 - Noel Blues.wav" WAVE INDEX 01 00:00:00


Трекер:  [ 05-Фев-2012 15:45 ]

  

Скачать .torrent

Размер .torrent файла 43 KB


Размер: 3.43 GB
Хэш (hash) релиза: 1eadb9aa1aafd8daf1f5f72c798ed1ffc9768a7e

Еще никто не оставлял запись к записи скачать торрент Django Reinhardt — Djangologie 1928-1950 . Будь первым!

!Обратная связь