Скачать через торрент музыку Louis Prima - Collectors series - 1962, FLAC бесплатно без регистрации torrent

Если у вас наблюдаются проблемы со скриншотами, переходом по ссылками, скачиванием торрентов - проблемы в блокировщике рекламы AdBlock. #хорошегоДня!


Статистика раздачи
Размер:  406 MB   |    Зарегистрирован:  5 лет 8 месяцев   |    .torrent скачан:  33 раза   |   
Раздают:  1  
   
Загрузка...
 
Автор Сообщение

Galfimbul

avatar Galfimbul


Louis Prima - Collectors series

Жанр: Jazz/Swing/Early R&B
Год выпуска диска: 1962
Производитель диска: Россия
Аудио кодек: FLAC
Тип рипа: image+.cue
Битрейт аудио: lossless
Продолжительность: 1:12:20
Трэклист:
01- Just A Gigolo - I Ain't Got Nobody
02- Oh Marie
03- Buona Sera
04- Jump, Jive, An' Wail
05- Basin Street Blues - When It's Sleepy Time Down South (Medley)
06- The Lip
07- Whistle Stop
08- 5 Months, 2 Weeks, 2 Days
09- Banana Split For My Baby
10- There'll Be No Next Time
11- When You're Smiling - The Sheik Of Araby (Medley)
12- Baby, Won't You Please Come Home
13- I've Got The World On A String
14- Pennies From Heaven
15- Angelina-Zooma Zooma
16- Beep! Beep!
17- Embraceable You - I Got It Bad And That Ain't Good
18- That Old Black Magic
19- The Music Goes 'Round And 'Round
20- Hey, Boy! Hey, Girl!
21- Lazy River
22- I've Got You Under My Skin
23- You're Just In Love
24- Twist All Night
25- St. Louis Blues
 
Exact Audio Copy V0.99 prebeta 5 from 4. May 2009

Отчёт EAC об извлечении, выполненном 27. апреля 2010, 21:20

Louis Prima / Collectors series

Дисковод: MATSHITAUJDA755 DVD/CDRW Adapter: 1 ID: 0

Режим чтения : ДостоверностьИспользование точного потока : ДаОтключение кэша аудио : ДаИспользование указателей C2 : Нет

Коррекция смещения при чтении : 102Способность читать области Lead-in и Lead-out : НетЗаполнение пропущенных сэмплов тишиной : ДаУдаление блоков с тишиной в начале и конце : НетПри вычислениях CRC использовались нулевые сэмплы : ДаИнтерфейс : Встроенный Win32-интерфейс для Win NT/2000

Выходной формат : Пользовательский кодировщикВыбранный битрейт : 768 kBit/sКачество : ВысокийДобавление ID3-тэга : НетУтилита сжатия : C:\Program Files\Exact Audio Copy\FLAC\FLAC.EXEДополнительные параметры : -8 -V %s

TOC извлечённого CD

Трек | Старт | Длительность | Начальный сектор | Конечный сектор --------------------------------------------------------------------- 1 | 0:00.00 | 4:43.15 | 0 | 21239 2 | 4:43.15 | 2:27.10 | 21240 | 32274 3 | 7:10.25 | 3:07.15 | 32275 | 46314 4 | 10:17.40 | 3:29.23 | 46315 | 62012 5 | 13:46.63 | 4:13.22 | 62013 | 81009 6 | 18:00.10 | 2:16.68 | 81010 | 91277 7 | 20:17.03 | 2:14.72 | 91278 | 101399 8 | 22:32.00 | 2:09.65 | 101400 | 111139 9 | 24:41.65 | 2:30.53 | 111140 | 122442 10 | 27:12.43 | 3:14.42 | 122443 | 137034 11 | 30:27.10 | 3:58.08 | 137035 | 154892 12 | 34:25.18 | 2:05.62 | 154893 | 164329 13 | 36:31.05 | 2:26.55 | 164330 | 175334 14 | 38:57.60 | 2:20.43 | 175335 | 185877 15 | 41:18.28 | 4:16.65 | 185878 | 205142 16 | 45:35.18 | 2:11.70 | 205143 | 215037 17 | 47:47.13 | 2:57.30 | 215038 | 228342 18 | 50:44.43 | 2:55.03 | 228343 | 241470 19 | 53:39.46 | 2:34.60 | 241471 | 253080 20 | 56:14.31 | 2:40.17 | 253081 | 265097 21 | 58:54.48 | 3:26.08 | 265098 | 280555 22 | 62:20.56 | 2:37.25 | 280556 | 292355 23 | 64:58.06 | 2:26.59 | 292356 | 303364 24 | 67:24.65 | 2:00.05 | 303365 | 312369 25 | 69:24.70 | 2:55.53 | 312370 | 325547

Характеристики диапазона извлечения и сообщения об ошибках

Выбранный диапазон

Имя файла G:\FLACи\Louis Prima - Collectors series\Louis Prima - Collectors series.wav

Пиковый уровень 97.2 % Качество диапазона 99.9 % CRC теста CDD26A85 CRC копии CDD26A85 Копирование... OK

Ошибок не произошло

AccurateRip: сводка

Трек 1 нет в базе данныхТрек 2 нет в базе данныхТрек 3 нет в базе данныхТрек 4 нет в базе данныхТрек 5 нет в базе данныхТрек 6 нет в базе данныхТрек 7 нет в базе данныхТрек 8 нет в базе данныхТрек 9 нет в базе данныхТрек 10 нет в базе данныхТрек 11 нет в базе данныхТрек 12 нет в базе данныхТрек 13 нет в базе данныхТрек 14 нет в базе данныхТрек 15 нет в базе данныхТрек 16 нет в базе данныхТрек 17 нет в базе данныхТрек 18 нет в базе данныхТрек 19 нет в базе данныхТрек 20 нет в базе данныхТрек 21 нет в базе данныхТрек 22 нет в базе данныхТрек 23 нет в базе данныхТрек 24 нет в базе данныхТрек 25 нет в базе данных

Ни одного трека нет в базе AccurateRip

Конец отчёта
Рип с диска из моей коллекции. Сканы 600dpi.

Трекер:  [ 05-Фев-2012 15:44 ]

  

Скачать .torrent

Размер .torrent файла 33 KB


Размер: 406 MB
Хэш (hash) релиза: 8444f76b658bfb10a9f14d4842f6d2a050e1a8af

Еще никто не оставлял запись к записи скачать торрент Louis Prima - Collectors series - 1962, FLAC . Будь первым!

!Обратная связь