Скачать через торрент музыку Andrew Birds Bowl Of Fire - Thrills - 1998, FLAC бесплатно без регистрации torrent

Если у вас наблюдаются проблемы со скриншотами, переходом по ссылками, скачиванием торрентов - проблемы в блокировщике рекламы AdBlock. #хорошегоДня!


Статистика раздачи
Размер:  218 MB   |    Зарегистрирован:  5 лет 8 месяцев   |    .torrent скачан:  28 раз   |   
Раздают:  1  
   
Загрузка...
 
Автор Сообщение

Galfimbul

avatar Galfimbul


Andrew Bird's Bowl Of Fire / Thrills

Жанр: Neo Swing, Dixieland
Страна-производитель диска: USA
Год издания диска: 1998
Издатель (лейбл): Rykodisc
Номер по каталогу: RCD 10397
Страна: USA
Аудиокодек: FLAC (*.flac)
Тип рипа: tracks+.cue
Битрейт аудио: lossless
Продолжительность: 52:56
Источник: waffles.fm
Наличие сканов в содержимом раздачи: нет

Треклист:

01. Minor Stab [5:26]
02. Ides Of Swing [2:45]
03. Glass Figurine [3:24]
04. Pathetique [4:31]
05. Depression-Pasillo [3:33]
06. 50 Pieces [3:27]
07. A Woman's Life And Love [4:26]
08. Swedish Wedding March [2:32]
09. Eugene [4:14]
10. Gris-Gris [3:27]
11. Cock O' The Walk [2:53]
12. Nuthinduan Waltz [3:01]
13. Some Of These Days / Chinatown My Chinatown [9:16]
 
X Lossless Decoder version 20100518 (120.3)

XLD extraction logfile from 2010-06-03 14:07:54 -0700

Andrew Bird's Bowl of Fire / Thrills

Used drive : MATSHITA DVD-R UJ-867 (revision HA13)

Use cdparanoia mode : YES (CDParanoia III 10.2 engine)Disable audio cache : OK for the drive with cache less than 2750KBMake use of C2 pointers : NORead offset correction : 102Max retry count : 100

TOC of the extracted CD Track | Start | Length | Start sector | End sector --------------------------------------------------------- 1 | 00:00:00 | 05:26:27 | 0 | 24476 2 | 05:26:27 | 02:45:23 | 24477 | 36874 3 | 08:11:50 | 03:24:37 | 36875 | 52211 4 | 11:36:12 | 04:31:05 | 52212 | 72541 5 | 16:07:17 | 03:32:53 | 72542 | 88494 6 | 19:39:70 | 03:26:50 | 88495 | 103994 7 | 23:06:45 | 04:25:52 | 103995 | 123921 8 | 27:32:22 | 02:32:03 | 123922 | 135324 9 | 30:04:25 | 04:14:35 | 135325 | 154409 10 | 34:18:60 | 03:27:10 | 154410 | 169944 11 | 37:45:70 | 02:53:02 | 169945 | 182921 12 | 40:38:72 | 03:01:08 | 182922 | 196504 13 | 43:40:05 | 09:16:05 | 196505 | 238209

List of alternate offset correction values # | Absolute | Relative | Confidence ------------------------------------------ 1 | 90 | -12 | 8 2 | 36 | -66 | 2

All Tracks Album gain : -4.11 dB Peak : 1.000000

Track 01 Filename : /Volumes/LaCie/Andrew Bird's Bowl of Fire - Thrills/01 Andrew Bird's Bowl of Fire - Minor Stab.flac /Volumes/LaCie/Andrew Bird's Bowl of Fire - Thrills/01 Andrew Bird's Bowl of Fire - Minor Stab.mp3

Pre-gap length : 00:02:00

Track gain : -5.57 dB Peak : 1.000000 CRC32 hash (test run) : 82C3A2CC CRC32 hash : 82C3A2CC CRC32 hash (skip zero) : 236F0160 AccurateRip signature : 9AD4FE3E ->Accurately ripped! (confidence 8) Statistics Read error : 0 Skipped (treated as error) : 0 Edge jitter error (maybe fixed) : 0 Atom jitter error (maybe fixed) : 0 Drift error (maybe fixed) : 0 Dropped bytes error (maybe fixed) : 0 Duplicated bytes error (maybe fixed) : 0 Inconsistency in error sectors : 0

Track 02 Filename : /Volumes/LaCie/Andrew Bird's Bowl of Fire - Thrills/02 Andrew Bird's Bowl of Fire - Ides of Swing.flac /Volumes/LaCie/Andrew Bird's Bowl of Fire - Thrills/02 Andrew Bird's Bowl of Fire - Ides of Swing.mp3

Track gain : -3.74 dB Peak : 0.993774 CRC32 hash (test run) : 4B1F9AFA CRC32 hash : 4B1F9AFA CRC32 hash (skip zero) : AE4E75A2 AccurateRip signature : 2389D44D ->Accurately ripped! (confidence 8) Statistics Read error : 0 Skipped (treated as error) : 0 Edge jitter error (maybe fixed) : 0 Atom jitter error (maybe fixed) : 0 Drift error (maybe fixed) : 0 Dropped bytes error (maybe fixed) : 0 Duplicated bytes error (maybe fixed) : 0 Inconsistency in error sectors : 0

Track 03 Filename : /Volumes/LaCie/Andrew Bird's Bowl of Fire - Thrills/03 Andrew Bird's Bowl of Fire - Glass Figurine.flac /Volumes/LaCie/Andrew Bird's Bowl of Fire - Thrills/03 Andrew Bird's Bowl of Fire - Glass Figurine.mp3

Track gain : -4.37 dB Peak : 0.982025 CRC32 hash (test run) : 58715D2B CRC32 hash : 58715D2B CRC32 hash (skip zero) : 03457468 AccurateRip signature : 2D11B3C7 ->Accurately ripped! (confidence 8) Statistics Read error : 0 Skipped (treated as error) : 0 Edge jitter error (maybe fixed) : 0 Atom jitter error (maybe fixed) : 0 Drift error (maybe fixed) : 0 Dropped bytes error (maybe fixed) : 0 Duplicated bytes error (maybe fixed) : 0 Inconsistency in error sectors : 0

Track 04 Filename : /Volumes/LaCie/Andrew Bird's Bowl of Fire - Thrills/04 Andrew Bird's Bowl of Fire - Pathetique.flac /Volumes/LaCie/Andrew Bird's Bowl of Fire - Thrills/04 Andrew Bird's Bowl of Fire - Pathetique.mp3

Track gain : -2.76 dB Peak : 0.940674 CRC32 hash (test run) : BC3BDBC0 CRC32 hash : BC3BDBC0 CRC32 hash (skip zero) : F9879E95 AccurateRip signature : 7891CFF7 ->Accurately ripped! (confidence 8) Statistics Read error : 0 Skipped (treated as error) : 0 Edge jitter error (maybe fixed) : 0 Atom jitter error (maybe fixed) : 0 Drift error (maybe fixed) : 0 Dropped bytes error (maybe fixed) : 0 Duplicated bytes error (maybe fixed) : 0 Inconsistency in error sectors : 0

Track 05 Filename : /Volumes/LaCie/Andrew Bird's Bowl of Fire - Thrills/05 Andrew Bird's Bowl of Fire - Depression - Pasillo.flac /Volumes/LaCie/Andrew Bird's Bowl of Fire - Thrills/05 Andrew Bird's Bowl of Fire - Depression - Pasillo.mp3

Pre-gap length : 00:00:60

Track gain : -4.88 dB Peak : 1.000000 CRC32 hash (test run) : A1CFA2F8 CRC32 hash : A1CFA2F8 CRC32 hash (skip zero) : 81B15DF8 AccurateRip signature : A9BBC80D ->Accurately ripped! (confidence 8) Statistics Read error : 0 Skipped (treated as error) : 0 Edge jitter error (maybe fixed) : 0 Atom jitter error (maybe fixed) : 0 Drift error (maybe fixed) : 0 Dropped bytes error (maybe fixed) : 0 Duplicated bytes error (maybe fixed) : 0 Inconsistency in error sectors : 0

Track 06 Filename : /Volumes/LaCie/Andrew Bird's Bowl of Fire - Thrills/06 Andrew Bird's Bowl of Fire - 50 Pieces.flac /Volumes/LaCie/Andrew Bird's Bowl of Fire - Thrills/06 Andrew Bird's Bowl of Fire - 50 Pieces.mp3

Pre-gap length : 00:00:63

Track gain : -3.31 dB Peak : 0.883759 CRC32 hash (test run) : AD8F9FB3 CRC32 hash : AD8F9FB3 CRC32 hash (skip zero) : 9E9980BC AccurateRip signature : 3F646C5E ->Accurately ripped! (confidence 8) Statistics Read error : 0 Skipped (treated as error) : 0 Edge jitter error (maybe fixed) : 1 Atom jitter error (maybe fixed) : 0 Drift error (maybe fixed) : 0 Dropped bytes error (maybe fixed) : 1 Duplicated bytes error (maybe fixed) : 1 Inconsistency in error sectors : 0

Track 07 Filename : /Volumes/LaCie/Andrew Bird's Bowl of Fire - Thrills/07 Andrew Bird's Bowl of Fire - A Woman's Life and Love.flac /Volumes/LaCie/Andrew Bird's Bowl of Fire - Thrills/07 Andrew Bird's Bowl of Fire - A Woman's Life and Love.mp3

Pre-gap length : 00:00:45

Track gain : -1.77 dB Peak : 0.792969 CRC32 hash (test run) : 03CD7790 CRC32 hash : 03CD7790 CRC32 hash (skip zero) : 32C32DF0 AccurateRip signature : BF6A20A0 ->Accurately ripped! (confidence 8) Statistics Read error : 0 Skipped (treated as error) : 0 Edge jitter error (maybe fixed) : 0 Atom jitter error (maybe fixed) : 0 Drift error (maybe fixed) : 0 Dropped bytes error (maybe fixed) : 0 Duplicated bytes error (maybe fixed) : 0 Inconsistency in error sectors : 0

Track 08 Filename : /Volumes/LaCie/Andrew Bird's Bowl of Fire - Thrills/08 Andrew Bird's Bowl of Fire - Swedish Wedding March.flac /Volumes/LaCie/Andrew Bird's Bowl of Fire - Thrills/08 Andrew Bird's Bowl of Fire - Swedish Wedding March.mp3

Track gain : -4.40 dB Peak : 0.667511 CRC32 hash (test run) : 7F88B1A2 CRC32 hash : 7F88B1A2 CRC32 hash (skip zero) : A1642819 AccurateRip signature : 2ACCEF97 ->Accurately ripped! (confidence 8) Statistics Read error : 0 Skipped (treated as error) : 0 Edge jitter error (maybe fixed) : 0 Atom jitter error (maybe fixed) : 0 Drift error (maybe fixed) : 0 Dropped bytes error (maybe fixed) : 0 Duplicated bytes error (maybe fixed) : 0 Inconsistency in error sectors : 0

Track 09 Filename : /Volumes/LaCie/Andrew Bird's Bowl of Fire - Thrills/09 Andrew Bird's Bowl of Fire - Eugene.flac /Volumes/LaCie/Andrew Bird's Bowl of Fire - Thrills/09 Andrew Bird's Bowl of Fire - Eugene.mp3

Pre-gap length : 00:01:15

Track gain : -3.37 dB Peak : 1.000000 CRC32 hash (test run) : B0743A02 CRC32 hash : B0743A02 CRC32 hash (skip zero) : 40E937ED AccurateRip signature : CE28C5D3 ->Accurately ripped! (confidence 8) Statistics Read error : 0 Skipped (treated as error) : 0 Edge jitter error (maybe fixed) : 0 Atom jitter error (maybe fixed) : 0 Drift error (maybe fixed) : 0 Dropped bytes error (maybe fixed) : 0 Duplicated bytes error (maybe fixed) : 0 Inconsistency in error sectors : 0

Track 10 Filename : /Volumes/LaCie/Andrew Bird's Bowl of Fire - Thrills/10 Andrew Bird's Bowl of Fire - Gris-Gris.flac /Volumes/LaCie/Andrew Bird's Bowl of Fire - Thrills/10 Andrew Bird's Bowl of Fire - Gris-Gris.mp3

Pre-gap length : 00:01:13

Track gain : -3.88 dB Peak : 1.000000 CRC32 hash (test run) : C3F72E47 CRC32 hash : C3F72E47 CRC32 hash (skip zero) : 8F0BBAFA AccurateRip signature : 38463240 ->Accurately ripped! (confidence 8) Statistics Read error : 0 Skipped (treated as error) : 0 Edge jitter error (maybe fixed) : 0 Atom jitter error (maybe fixed) : 0 Drift error (maybe fixed) : 0 Dropped bytes error (maybe fixed) : 0 Duplicated bytes error (maybe fixed) : 0 Inconsistency in error sectors : 0

Track 11 Filename : /Volumes/LaCie/Andrew Bird's Bowl of Fire - Thrills/11 Andrew Bird's Bowl of Fire - Cock o' the Walk.flac /Volumes/LaCie/Andrew Bird's Bowl of Fire - Thrills/11 Andrew Bird's Bowl of Fire - Cock o' the Walk.mp3

Pre-gap length : 00:00:65

Track gain : -3.64 dB Peak : 0.963501 CRC32 hash (test run) : 0A72E51C CRC32 hash : 0A72E51C CRC32 hash (skip zero) : 9A37185F AccurateRip signature : 242866D6 ->Accurately ripped! (confidence 8) Statistics Read error : 0 Skipped (treated as error) : 0 Edge jitter error (maybe fixed) : 0 Atom jitter error (maybe fixed) : 0 Drift error (maybe fixed) : 0 Dropped bytes error (maybe fixed) : 0 Duplicated bytes error (maybe fixed) : 0 Inconsistency in error sectors : 0

Track 12 Filename : /Volumes/LaCie/Andrew Bird's Bowl of Fire - Thrills/12 Andrew Bird's Bowl of Fire - Nuthinduan Waltz.flac /Volumes/LaCie/Andrew Bird's Bowl of Fire - Thrills/12 Andrew Bird's Bowl of Fire - Nuthinduan Waltz.mp3

Track gain : -2.84 dB Peak : 0.780090 CRC32 hash (test run) : DF174BE5 CRC32 hash : DF174BE5 CRC32 hash (skip zero) : 07C85CB5 AccurateRip signature : 3F662ADF ->Accurately ripped! (confidence 8) Statistics Read error : 0 Skipped (treated as error) : 0 Edge jitter error (maybe fixed) : 0 Atom jitter error (maybe fixed) : 0 Drift error (maybe fixed) : 0 Dropped bytes error (maybe fixed) : 0 Duplicated bytes error (maybe fixed) : 0 Inconsistency in error sectors : 0

Track 13 Filename : /Volumes/LaCie/Andrew Bird's Bowl of Fire - Thrills/13 Andrew Bird's Bowl of Fire - Some of These Days, Chinatown My Chinatown.flac /Volumes/LaCie/Andrew Bird's Bowl of Fire - Thrills/13 Andrew Bird's Bowl of Fire - Some of These Days, Chinatown My Chinatown.mp3

Pre-gap length : 00:01:05

Track gain : -4.26 dB Peak : 0.997284 CRC32 hash (test run) : B400A833 CRC32 hash : B400A833 CRC32 hash (skip zero) : FF1BB38B AccurateRip signature : A6491B86 ->Accurately ripped! (confidence 8) Statistics Read error : 0 Skipped (treated as error) : 0 Edge jitter error (maybe fixed) : 0 Atom jitter error (maybe fixed) : 0 Drift error (maybe fixed) : 0 Dropped bytes error (maybe fixed) : 0 Duplicated bytes error (maybe fixed) : 0 Inconsistency in error sectors : 0

No errors occurred

End of status report
 
REM GENRE JazzREM DATE 1998REM DISCID BB0C680DPERFORMER "Andrew Bird's Bowl of Fire"TITLE "Thrills"FILE "01 Andrew Bird's Bowl of Fire - Minor Stab.wav" WAVE TRACK 01 AUDIO TITLE "Minor Stab" PERFORMER "Andrew Bird's Bowl of Fire" INDEX 01 00:00:00FILE "02 Andrew Bird's Bowl of Fire - Ides of Swing.wav" WAVE TRACK 02 AUDIO TITLE "Ides of Swing" PERFORMER "Andrew Bird's Bowl of Fire" INDEX 01 00:00:00FILE "03 Andrew Bird's Bowl of Fire - Glass Figurine.wav" WAVE TRACK 03 AUDIO TITLE "Glass Figurine" PERFORMER "Andrew Bird's Bowl of Fire" INDEX 01 00:00:00FILE "04 Andrew Bird's Bowl of Fire - Pathetique.wav" WAVE TRACK 04 AUDIO TITLE "Pathetique" PERFORMER "Andrew Bird's Bowl of Fire" INDEX 01 00:00:00 TRACK 05 AUDIO TITLE "Depression - Pasillo" PERFORMER "Andrew Bird's Bowl of Fire" INDEX 00 04:30:20FILE "05 Andrew Bird's Bowl of Fire - Depression - Pasillo.wav" WAVE INDEX 01 00:00:00 TRACK 06 AUDIO TITLE "50 Pieces" PERFORMER "Andrew Bird's Bowl of Fire" INDEX 00 03:31:65FILE "06 Andrew Bird's Bowl of Fire - 50 Pieces.wav" WAVE INDEX 01 00:00:00 TRACK 07 AUDIO TITLE "A Woman's Life and Love" PERFORMER "Andrew Bird's Bowl of Fire" INDEX 00 03:26:05FILE "07 Andrew Bird's Bowl of Fire - A Woman's Life and Love.wav" WAVE INDEX 01 00:00:00FILE "08 Andrew Bird's Bowl of Fire - Swedish Wedding March.wav" WAVE TRACK 08 AUDIO TITLE "Swedish Wedding March" PERFORMER "Andrew Bird's Bowl of Fire" INDEX 01 00:00:00 TRACK 09 AUDIO TITLE "Eugene" PERFORMER "Andrew Bird's Bowl of Fire" INDEX 00 02:30:63FILE "09 Andrew Bird's Bowl of Fire - Eugene.wav" WAVE INDEX 01 00:00:00 TRACK 10 AUDIO TITLE "Gris-Gris" PERFORMER "Andrew Bird's Bowl of Fire" INDEX 00 04:13:22FILE "10 Andrew Bird's Bowl of Fire - Gris-Gris.wav" WAVE INDEX 01 00:00:00 TRACK 11 AUDIO TITLE "Cock o' the Walk" PERFORMER "Andrew Bird's Bowl of Fire" INDEX 00 03:26:20FILE "11 Andrew Bird's Bowl of Fire - Cock o' the Walk.wav" WAVE INDEX 01 00:00:00FILE "12 Andrew Bird's Bowl of Fire - Nuthinduan Waltz.wav" WAVE TRACK 12 AUDIO TITLE "Nuthinduan Waltz" PERFORMER "Andrew Bird's Bowl of Fire" INDEX 01 00:00:00 TRACK 13 AUDIO TITLE "Some of These Days, Chinatown My Chinatown" PERFORMER "Andrew Bird's Bowl of Fire" INDEX 00 03:00:03FILE "13 Andrew Bird's Bowl of Fire - Some of These Days, Chinatown My Chinatown.wav" WAVE INDEX 01 00:00:00


Трекер:  [ 05-Фев-2012 15:44 ]

  

Скачать .torrent

Размер .torrent файла 19 KB


Размер: 218 MB
Хэш (hash) релиза: f3f8f711bc78ad03744b08ac323746d5a6458d95

Еще никто не оставлял запись к записи скачать торрент Andrew Birds Bowl Of Fire - Thrills - 1998, FLAC . Будь первым!

!Обратная связь