Скачать через торрент музыку Fatsy Fingers Roaring Piano Band - The World of Honky Tonk Piano - 1992, бесплатно без регистрации torrent

Если у вас наблюдаются проблемы со скриншотами, переходом по ссылками, скачиванием торрентов - проблемы в блокировщике рекламы AdBlock. #хорошегоДня!


Статистика раздачи
Размер:  304 MB   |    Зарегистрирован:  5 лет 8 месяцев   |    .torrent скачан:  28 раз   |   
Раздают:  1  
   
Загрузка...
 
Автор Сообщение

Galfimbul

avatar Galfimbul


Fatsy Finger's Roaring Piano Band / The World of Honky Tonk Piano

Жанр: Boogie-Woogie
Страна-производитель диска: Holland
Год издания диска: 1992
Издатель (лейбл): Trace
Номер по каталогу: 0400322
Аудиокодек: FLAC (*.flac)
Тип рипа: image+.cue
Битрейт аудио: lossless
Продолжительность: 48.35
Источник (релизер): fanplast
Наличие сканов в содержимом раздачи: да
Треклист:
1. Humoresques
2. Down By The Riverside
3. Swanee River Boogie
4. Boogie Man
5. We Ain't Got One
6. Green Man Rag
7. John Brown's Blues
8. Loch Lomond
9. 11.50 Blues
10. Struttin' In Harlem
11. Low Key
12. A Closer Walk With Three
13. Stratford Rad
14. She'll Be Coming 'Round The Mountain
15. Little Brown Jug
16. Gloryand
17. Swing Low Sweet Chariot
18. Londonderry Air
19. Clementine
20. Cossack Swing
 
Exact Audio Copy V0.99 prebeta 5 from 4. May 2009

Отчёт EAC об извлечении, выполненном 11. февраля 2012, 17:54

Fatsy Finger's Roaring Piano Band / The World of Honky Tonk Piano

Дисковод: PIONEER DVD-RW DVR-212 Adapter: 3 ID: 0

Режим чтения : ДостоверностьИспользование точного потока : ДаОтключение кэша аудио : ДаИспользование указателей C2 : Нет

Коррекция смещения при чтении : 48Способность читать области Lead-in и Lead-out : НетЗаполнение пропущенных сэмплов тишиной : ДаУдаление блоков с тишиной в начале и конце : НетПри вычислениях CRC использовались нулевые сэмплы : ДаИнтерфейс : Встроенный Win32-интерфейс для Win NT/2000

Выходной формат : Пользовательский кодировщикВыбранный битрейт : 1024 kBit/sКачество : ВысокийДобавление ID3-тэга : НетУтилита сжатия : C:\Program Files\FLAC\flac.exeДополнительные параметры : -6 -V -T "ARTIST=%a" -T "TITLE=%t" -T "ALBUM=%g" -T "DATE=%y" -T "TRACKNUMBER=%n" -T "GENRE=%m" -T "COMMENT=%e" %s -o %d

TOC извлечённого CD

Трек | Старт | Длительность | Начальный сектор | Конечный сектор --------------------------------------------------------------------- 1 | 0:00.33 | 2:33.00 | 33 | 11507 2 | 2:33.33 | 2:55.50 | 11508 | 24682 3 | 5:29.08 | 2:04.50 | 24683 | 34032 4 | 7:33.58 | 2:18.12 | 34033 | 44394 5 | 9:51.70 | 2:19.13 | 44395 | 54832 6 | 12:11.08 | 2:24.00 | 54833 | 65632 7 | 14:35.08 | 2:35.00 | 65633 | 77257 8 | 17:10.08 | 2:21.37 | 77258 | 87869 9 | 19:31.45 | 2:50.38 | 87870 | 100657 10 | 22:22.08 | 2:11.50 | 100658 | 110532 11 | 24:33.58 | 2:46.00 | 110533 | 122982 12 | 27:19.58 | 2:01.37 | 122983 | 132094 13 | 29:21.20 | 2:35.63 | 132095 | 143782 14 | 31:57.08 | 2:33.00 | 143783 | 155257 15 | 34:30.08 | 1:58.00 | 155258 | 164107 16 | 36:28.08 | 2:13.00 | 164108 | 174082 17 | 38:41.08 | 2:12.00 | 174083 | 183982 18 | 40:53.08 | 2:45.37 | 183983 | 196394 19 | 43:38.45 | 2:05.00 | 196395 | 205769 20 | 45:43.45 | 2:52.30 | 205770 | 218699

Характеристики диапазона извлечения и сообщения об ошибках

Выбранный диапазон

Имя файла G:\Fatsy Finger's Roaring Piano Band\Fatsy Finger's Roaring Piano Band - The World of Honky Tonk Piano.wav

Пиковый уровень 100.0 % Качество диапазона 100.0 % CRC теста BB4BD229 CRC копии BB4BD229 Копирование... OK

Ошибок не произошло

AccurateRip: сводка

Трек 1 точное извлечение (доверие 1) [80EA29D2]Трек 2 точное извлечение (доверие 1) [4FFD99BC]Трек 3 точное извлечение (доверие 1) [BAFA5740]Трек 4 точное извлечение (доверие 1) [DBA9A50B]Трек 5 точное извлечение (доверие 1) [27F19869]Трек 6 точное извлечение (доверие 1) [A80FDB81]Трек 7 точное извлечение (доверие 1) [2217F8D7]Трек 8 точное извлечение (доверие 1) [87EC9BF9]Трек 9 точное извлечение (доверие 1) [9F409977]Трек 10 точное извлечение (доверие 1) [A5E6195D]Трек 11 точное извлечение (доверие 1) [410D35F5]Трек 12 точное извлечение (доверие 1) [D300A760]Трек 13 точное извлечение (доверие 1) [8FBA67B6]Трек 14 точное извлечение (доверие 1) [67953BAE]Трек 15 точное извлечение (доверие 1) [CE1A98F8]Трек 16 точное извлечение (доверие 1) [DD30F0FE]Трек 17 точное извлечение (доверие 1) [884DFBA6]Трек 18 точное извлечение (доверие 1) [77A8CA76]Трек 19 точное извлечение (доверие 1) [BD819306]Трек 20 точное извлечение (доверие 1) [80C939EF]

Все треки извлечены точно

Конец отчёта


Трекер:  [ 05-Фев-2012 15:44 ]

  

Скачать .torrent

Размер .torrent файла 13 KB


Размер: 304 MB
Хэш (hash) релиза: 59f083c2f91d2a0238ad96b34a10792072a722b4

Еще никто не оставлял запись к записи скачать торрент Fatsy Fingers Roaring Piano Band - The World of Honky Tonk Piano - 1992, . Будь первым!

!Обратная связь