Скачать через торрент музыку Saul Berson Quartet - From Here to Beyond - 1998, FLAC бесплатно без регистрации torrent

Если у вас наблюдаются проблемы со скриншотами, переходом по ссылками, скачиванием торрентов - проблемы в блокировщике рекламы AdBlock. #хорошегоДня!


Статистика раздачи
Размер:  363 MB   |    Зарегистрирован:  5 лет 8 месяцев   |    .torrent скачан:  31 раз   |   
Раздают:  1  
   
Загрузка...
 
Автор Сообщение

Galfimbul

avatar Galfimbul


Saul Berson Quartet - From Here to Beyond

Жанр: Swing Jazz/Avante-Garde Jazz
Год выпуска диска: 1998
Производитель диска: Canada
Аудио кодек: FLAC
Тип рипа: image+.cue
Битрейт аудио: lossless
Продолжительность: 58:24

Трэклист:
1. Entertaining Ayli
2. Rushing to Wait
3. Odysee
4. Blakey's Beat
5. Veiled Land
6. Mindless Matter
7. Jamber Raze
8. Ask Me Now
9. Exuberance

Доп. информация:
Saul Berson: Alto Sax
Tony Wilson: Guitar
Paul Blaney: Bass
Dave Robbins: Drums
Kim Darwin: Accordion
Exact Audio Copy V0.99 prebeta 4 from 23. January 2008

EAC extraction logfile from 17. April 2009, 18:39

Unknown Artist / Unknown Title

Used drive : PIONEER DVD-RW DVR-108 Adapter: 0 ID: 2

Read mode : Secure
Utilize accurate stream : Yes
Defeat audio cache : Yes
Make use of C2 pointers : No

Read offset correction : 48
Overread into Lead-In and Lead-Out : No
Fill up missing offset samples with silence : Yes
Delete leading and trailing silent blocks : No
Null samples used in CRC calculations : Yes
Used interface : Native Win32 interface for Win NT & 2000

Used output format : Internal WAV Routines
Sample format : 44.100 Hz; 16 Bit; Stereo

TOC of the extracted CD

Track | Start | Length | Start sector | End sector
---------------------------------------------------------
1 | 0:00.30 | 4:39.37 | 30 | 20991
2 | 4:39.67 | 5:19.69 | 20992 | 44985
3 | 9:59.61 | 5:28.11 | 44986 | 69596
4 | 15:27.72 | 4:02.25 | 69597 | 87771
5 | 19:30.22 | 11:36.64 | 87772 | 140035
6 | 31:07.11 | 5:30.29 | 140036 | 164814
7 | 36:37.40 | 8:35.57 | 164815 | 203496
8 | 45:13.22 | 6:54.31 | 203497 | 234577
9 | 52:07.53 | 7:57.65 | 234578 | 270417

Range status and errors

Selected range

Filename Q:\Saul Berson\From here to beyond\Unknown Artist - Unknown Title.wav

Peak level 100.0 %
Range quality 99.9 %
Copy CRC C8714EA0
Copy OK

No errors occurred

End of status report


Трекер:  [ 05-Фев-2012 15:43 ]

  

Скачать .torrent

Размер .torrent файла 15 KB


Размер: 363 MB
Хэш (hash) релиза: 7d80aef23180320a008a2b92a7f0130ab794027f

Еще никто не оставлял запись к записи скачать торрент Saul Berson Quartet - From Here to Beyond - 1998, FLAC . Будь первым!

!Обратная связь