Скачать через торрент музыку Joe Sample & David T Walker - Swing Street Cafe - 2008, FLAC бесплатно без регистрации torrent

Если у вас наблюдаются проблемы со скриншотами, переходом по ссылками, скачиванием торрентов - проблемы в блокировщике рекламы AdBlock. #хорошегоДня!


Статистика раздачи
Размер:  215 MB   |    Зарегистрирован:  5 лет 8 месяцев   |    .torrent скачан:  41 раз   |   
Раздают:  1  
   
Загрузка...
 
Автор Сообщение

Galfimbul

avatar Galfimbul


Joe Sample & David T Walker - Swing Street Cafe

Жанр: Soul Jazz, Standards, Jazz Blues, Boogie-Woogie
Год записи альбома: 1981
Год выпуска диска: 2008
Производитель диска: E.U. {Verve 0602517835092}
Аудио кодек: FLAC
Тип рипа: tracks+.cue
Битрейт аудио: lossless
Продолжительность: 35:21

Трэклист:
01. Hallelujah, I Love Her So
02. Rockhouse
03. Honest I Do
04. Next Time U See Me
05. Woke Up This Morning
06. C. C. Rider
07. Honky Tonk
08. After Hours

Доп. информация:
Joe Sample - Keyboards
David T. Walker - Guitar
Earl C. Palmer, SR. - Drums
James Jamerson, SR. - Bass
Al Aarons - Trumpet, Horn
Ernie Fields, Jr.; Jackie Kelso; John Kelson, Jr.; Herman Riley - Horn

сканы JPEG прилагаются
За релиз огромное спасибо Sarchiapone!
 
Exact Audio Copy V0.99 prebeta 4 from 23. January 2008

EAC extraction logfile from 16. May 2009, 20:35

Joe Sample & David T Walker / Swing Street Cafe

Used drive : PLEXTOR CD-R PREMIUM2 Adapter: 1 ID: 1

Read mode : SecureUtilize accurate stream : YesDefeat audio cache : YesMake use of C2 pointers : No

Read offset correction : 30Overread into Lead-In and Lead-Out : NoFill up missing offset samples with silence : YesDelete leading and trailing silent blocks : NoNull samples used in CRC calculations : YesUsed interface : Installed external ASPI interfaceGap handling : Appended to previous track

Used output format : User Defined EncoderSelected bitrate : 32 kBit/sQuality : HighAdd ID3 tag : NoCommand line compressor : C:\Programmi\FLAC\flac.exeAdditional command line options : -8 -V -T "ARTIST=%a" -T "TITLE=%t" -T "ALBUM=%g" -T "DATE=%y" -T "TRACKNUMBER=%n" -T "GENRE=%m" -T "COMMENT=EAC FLAC -8" %s

TOC of the extracted CD

Track | Start | Length | Start sector | End sector --------------------------------------------------------- 1 | 0:00.00 | 5:01.19 | 0 | 22593 2 | 5:01.19 | 3:39.68 | 22594 | 39086 3 | 8:41.12 | 3:29.03 | 39087 | 54764 4 | 12:10.15 | 4:55.22 | 54765 | 76911 5 | 17:05.37 | 4:16.42 | 76912 | 96153 6 | 21:22.04 | 4:15.44 | 96154 | 115322 7 | 25:37.48 | 5:15.15 | 115323 | 138962 8 | 30:52.63 | 4:27.72 | 138963 | 159059

Track 1

Filename D:\My Rip\01 - Hallelujah, I Love Her So.wav

Pre-gap length 0:00:02.00

Peak level 98.8 % Track quality 100.0 % Test CRC 5DFD1829 Copy CRC 5DFD1829 Accurately ripped (confidence 2) [3C2CAE7B] Copy OK

Track 2

Filename D:\My Rip\02 - Rockhouse.wav

Peak level 98.8 % Track quality 100.0 % Test CRC 682B23B8 Copy CRC 682B23B8 Accurately ripped (confidence 2) [0D3A1385] Copy OK

Track 3

Filename D:\My Rip\03 - Honest I Do.wav

Peak level 98.8 % Track quality 100.0 % Test CRC 2D4ACE87 Copy CRC 2D4ACE87 Accurately ripped (confidence 2) [0B167EAB] Copy OK

Track 4

Filename D:\My Rip\04 - Next Time U See Me.wav

Peak level 98.8 % Track quality 100.0 % Test CRC A4754F09 Copy CRC A4754F09 Accurately ripped (confidence 2) [A7CCD4A1] Copy OK

Track 5

Filename D:\My Rip\05 - Woke Up This Morning.wav

Peak level 98.8 % Track quality 100.0 % Test CRC 90E51F08 Copy CRC 90E51F08 Accurately ripped (confidence 2) [668BE002] Copy OK

Track 6

Filename D:\My Rip\06 - C. C. Rider.wav

Peak level 98.8 % Track quality 100.0 % Test CRC 4071D71B Copy CRC 4071D71B Accurately ripped (confidence 2) [B498C1AD] Copy OK

Track 7

Filename D:\My Rip\07 - Honky Tonk.wav

Peak level 98.8 % Track quality 100.0 % Test CRC 81668AEB Copy CRC 81668AEB Accurately ripped (confidence 2) [3BB9F3F3] Copy OK

Track 8

Filename D:\My Rip\08 - After Hours.wav

Peak level 98.8 % Track quality 99.9 % Test CRC C8BFE681 Copy CRC C8BFE681 Accurately ripped (confidence 2) [417100B7] Copy OK

All tracks accurately ripped

No errors occurred

End of status report
 
REM GENRE JazzREM DATE 1981REM DISCID 5B084808REM COMMENT "ExactAudioCopy v0.99pb4"PERFORMER "Joe Sample & David T Walker"TITLE "Swing Street Cafe"FILE "01 - Hallelujah, I Love Her So.wav" WAVE TRACK 01 AUDIO TITLE "Hallelujah, I Love Her So" PERFORMER "Joe Sample & David T Walker" INDEX 01 00:00:00FILE "02 - Rockhouse.wav" WAVE TRACK 02 AUDIO TITLE "Rockhouse" PERFORMER "Joe Sample & David T Walker" INDEX 01 00:00:00FILE "03 - Honest I Do.wav" WAVE TRACK 03 AUDIO TITLE "Honest I Do" PERFORMER "Joe Sample & David T Walker" INDEX 01 00:00:00FILE "04 - Next Time U See Me.wav" WAVE TRACK 04 AUDIO TITLE "Next Time U See Me" PERFORMER "Joe Sample & David T Walker" INDEX 01 00:00:00FILE "05 - Woke Up This Morning.wav" WAVE TRACK 05 AUDIO TITLE "Woke Up This Morning" PERFORMER "Joe Sample & David T Walker" INDEX 01 00:00:00FILE "06 - C. C. Rider.wav" WAVE TRACK 06 AUDIO TITLE "C. C. Rider" PERFORMER "Joe Sample & David T Walker" INDEX 01 00:00:00FILE "07 - Honky Tonk.wav" WAVE TRACK 07 AUDIO TITLE "Honky Tonk" PERFORMER "Joe Sample & David T Walker" INDEX 01 00:00:00FILE "08 - After Hours.wav" WAVE TRACK 08 AUDIO TITLE "After Hours" PERFORMER "Joe Sample & David T Walker" INDEX 01 00:00:00


Трекер:  [ 05-Фев-2012 15:43 ]

  

Скачать .torrent

Размер .torrent файла 36 KB


Размер: 215 MB
Хэш (hash) релиза: 7d63787431d6e747f7226797e350af44169d1671

Еще никто не оставлял запись к записи скачать торрент Joe Sample & David T Walker - Swing Street Cafe - 2008, FLAC . Будь первым!

!Обратная связь