Скачать через торрент музыку Terry Garland - Out Where The Blue Begins - 2001, FLAC бесплатно без регистрации torrent

Если у вас наблюдаются проблемы со скриншотами, переходом по ссылками, скачиванием торрентов - проблемы в блокировщике рекламы AdBlock. #хорошегоДня!


Статистика раздачи
Размер:  293 MB   |    Зарегистрирован:  5 лет 8 месяцев   |    .torrent скачан:  35 раз   |   
Раздают:  1  
   
Загрузка...
 
Автор Сообщение

Umakiro

avatar Umakiro


Terry Garland - Out Where The Blue Begins

Жанр: Blues / Acoustic Blues
Год выпуска : 2001
Аудио кодек: FLAC
Тип рипа: tracks+.cue
Битрейт аудио: lossless
Продолжительность: 00:49:03
Рип: sjo - What CD
01.
Dude Boy Boogie (2:46)
02. Dallas (2:50)
03. Poor Boy Blues (4:10)
04. Courtesy Of Love (4:32)
05. Champagne And Reefer (4:33)
06. Blues Fell This Morning (3:52)
07. Going Home (4:48)
08. Running Back To You (5:03)
09. Can't Be Satisfied (5:04)
10. My Baby Left Town (3:51)
11. Out Where The Blue Begins (3:23)
12. Dust My Broom (4:12)
 
Exact Audio Copy V0.99 prebeta 4 from 23. January 2008

EAC extraction logfile from 8. May 2009, 22:11

Terry Garland / Out Where The Blue Begins

Used drive : ASUS DRW-1612BL Adapter: 0 ID: 0

Read mode : SecureUtilize accurate stream : YesDefeat audio cache : YesMake use of C2 pointers : No

Read offset correction : 6Overread into Lead-In and Lead-Out : NoFill up missing offset samples with silence : YesDelete leading and trailing silent blocks : NoNull samples used in CRC calculations : YesUsed interface : Native Win32 interface for Win NT & 2000Gap handling : Appended to previous track

Used output format : User Defined EncoderSelected bitrate : 320 kBit/sQuality : HighAdd ID3 tag : NoCommand line compressor : C:\Program Files\FLAC\flac.exeAdditional command line options : -V -8 -T "artist=%a" -T "title=%t" -T "album=%g" -T "date=%y" -T "tracknumber=%n" -T "genre=%m" %s

TOC of the extracted CD

Track | Start | Length | Start sector | End sector --------------------------------------------------------- 1 | 0:00.00 | 2:46.07 | 0 | 12456 2 | 2:46.07 | 2:49.70 | 12457 | 25201 3 | 5:36.02 | 4:10.05 | 25202 | 43956 4 | 9:46.07 | 4:31.48 | 43957 | 64329 5 | 14:17.55 | 4:33.17 | 64330 | 84821 6 | 18:50.72 | 3:51.60 | 84822 | 102206 7 | 22:42.57 | 4:48.37 | 102207 | 123843 8 | 27:31.19 | 5:03.00 | 123844 | 146568 9 | 32:34.19 | 5:03.67 | 146569 | 169360 10 | 37:38.11 | 3:50.50 | 169361 | 186660 11 | 41:28.61 | 3:22.70 | 186661 | 201880 12 | 44:51.56 | 4:11.73 | 201881 | 220778

Track 1

Filename C:\EAC Extractions\Terry Garland - Out Where The Blue Begins (2001) [FLAC]\01 - Dude Boy Boogie.wav

Pre-gap length 0:00:02.00

Peak level 99.4 % Track quality 100.0 % Test CRC 2F9BDE85 Copy CRC 2F9BDE85 Track not present in AccurateRip database Copy OK

Track 2

Filename C:\EAC Extractions\Terry Garland - Out Where The Blue Begins (2001) [FLAC]\02 - Dallas.wav

Pre-gap length 0:00:02.00

Peak level 99.4 % Track quality 100.0 % Test CRC FE7ECBBD Copy CRC FE7ECBBD Track not present in AccurateRip database Copy OK

Track 3

Filename C:\EAC Extractions\Terry Garland - Out Where The Blue Begins (2001) [FLAC]\03 - Poor Boy Blues.wav

Peak level 99.4 % Track quality 99.9 % Test CRC 10F94DA7 Copy CRC 10F94DA7 Track not present in AccurateRip database Copy OK

Track 4

Filename C:\EAC Extractions\Terry Garland - Out Where The Blue Begins (2001) [FLAC]\04 - Courtesy Of Love.wav

Pre-gap length 0:00:00.73

Peak level 99.4 % Track quality 99.9 % Test CRC 3D028B2E Copy CRC 3D028B2E Track not present in AccurateRip database Copy OK

Track 5

Filename C:\EAC Extractions\Terry Garland - Out Where The Blue Begins (2001) [FLAC]\05 - Champagne And Reefer.wav

Peak level 99.3 % Track quality 100.0 % Test CRC CF2D8F99 Copy CRC CF2D8F99 Track not present in AccurateRip database Copy OK

Track 6

Filename C:\EAC Extractions\Terry Garland - Out Where The Blue Begins (2001) [FLAC]\06 - Blues Fell This Morning.wav

Pre-gap length 0:00:00.96

Peak level 99.4 % Track quality 100.0 % Test CRC B9FDEA29 Copy CRC B9FDEA29 Track not present in AccurateRip database Copy OK

Track 7

Filename C:\EAC Extractions\Terry Garland - Out Where The Blue Begins (2001) [FLAC]\07 - Going Home.wav

Peak level 99.4 % Track quality 100.0 % Test CRC 1AE585EC Copy CRC 1AE585EC Track not present in AccurateRip database Copy OK

Track 8

Filename C:\EAC Extractions\Terry Garland - Out Where The Blue Begins (2001) [FLAC]\08 - Running Back To You.wav

Pre-gap length 0:00:02.00

Peak level 99.4 % Track quality 100.0 % Test CRC 0EE9C082 Copy CRC 0EE9C082 Track not present in AccurateRip database Copy OK

Track 9

Filename C:\EAC Extractions\Terry Garland - Out Where The Blue Begins (2001) [FLAC]\09 - Can't Be Satisfied.wav

Peak level 99.4 % Track quality 100.0 % Test CRC D953FEF6 Copy CRC D953FEF6 Track not present in AccurateRip database Copy OK

Track 10

Filename C:\EAC Extractions\Terry Garland - Out Where The Blue Begins (2001) [FLAC]\10 - My Baby Left Town.wav

Pre-gap length 0:00:02.00

Peak level 99.4 % Track quality 100.0 % Test CRC 5D4E1686 Copy CRC 5D4E1686 Track not present in AccurateRip database Copy OK

Track 11

Filename C:\EAC Extractions\Terry Garland - Out Where The Blue Begins (2001) [FLAC]\11 - Out Where The Blue Begins.wav

Peak level 99.4 % Track quality 100.0 % Test CRC 20D5E972 Copy CRC 20D5E972 Track not present in AccurateRip database Copy OK

Track 12

Filename C:\EAC Extractions\Terry Garland - Out Where The Blue Begins (2001) [FLAC]\12 - Dust My Broom.wav

Pre-gap length 0:00:02.00

Peak level 99.4 % Track quality 100.0 % Test CRC A0D10CF3 Copy CRC A0D10CF3 Track not present in AccurateRip database Copy OK

None of the tracks are present in the AccurateRip database

No errors occurred

End of status report
 
REM GENRE BluesREM DATE 2001REM DISCID B00B7F0CREM COMMENT "ExactAudioCopy v0.99pb4"PERFORMER "Terry Garland"TITLE "Out Where The Blue Begins"FILE "01 - Dude Boy Boogie.wav" WAVE TRACK 01 AUDIO TITLE "Dude Boy Boogie" PERFORMER "Terry Garland" INDEX 01 00:00:00 TRACK 02 AUDIO TITLE "Dallas" PERFORMER "Terry Garland" INDEX 00 02:44:07FILE "02 - Dallas.wav" WAVE INDEX 01 00:00:00FILE "03 - Poor Boy Blues.wav" WAVE TRACK 03 AUDIO TITLE "Poor Boy Blues" PERFORMER "Terry Garland" INDEX 01 00:00:00 TRACK 04 AUDIO TITLE "Courtesy Of Love" PERFORMER "Terry Garland" INDEX 00 04:09:25FILE "04 - Courtesy Of Love.wav" WAVE INDEX 01 00:00:00FILE "05 - Champagne And Reefer.wav" WAVE TRACK 05 AUDIO TITLE "Champagne And Reefer" PERFORMER "Terry Garland" INDEX 01 00:00:00 TRACK 06 AUDIO TITLE "Blues Fell This Morning" PERFORMER "Terry Garland" INDEX 00 04:32:20FILE "06 - Blues Fell This Morning.wav" WAVE INDEX 01 00:00:00FILE "07 - Going Home.wav" WAVE TRACK 07 AUDIO TITLE "Going Home" PERFORMER "Terry Garland" INDEX 01 00:00:00 TRACK 08 AUDIO TITLE "Running Back To You" PERFORMER "Terry Garland" INDEX 00 04:46:37FILE "08 - Running Back To You.wav" WAVE INDEX 01 00:00:00FILE "09 - Can't Be Satisfied.wav" WAVE TRACK 09 AUDIO TITLE "Can't Be Satisfied" PERFORMER "Terry Garland" INDEX 01 00:00:00 TRACK 10 AUDIO TITLE "My Baby Left Town" PERFORMER "Terry Garland" INDEX 00 05:01:67FILE "10 - My Baby Left Town.wav" WAVE INDEX 01 00:00:00FILE "11 - Out Where The Blue Begins.wav" WAVE TRACK 11 AUDIO TITLE "Out Where The Blue Begins" PERFORMER "Terry Garland" INDEX 01 00:00:00 TRACK 12 AUDIO TITLE "Dust My Broom" PERFORMER "Terry Garland" INDEX 00 03:20:70FILE "12 - Dust My Broom.wav" WAVE INDEX 01 00:00:00
 
Started at: воскресенье, 06. 06. 2010. - 19:37.40

12 files found

01 -===- C:\Downloads\Music\Джаз\Terry Garland - Out Where The Blue Begins - 2001\01 - Dude Boy Boogie.flac Extracted successfully Conclusion: This track looks like CDDA with probability 100% Tempfile successfully deleted.

02 -===- C:\Downloads\Music\Джаз\Terry Garland - Out Where The Blue Begins - 2001\02 - Dallas.flac Extracted successfully Conclusion: This track looks like CDDA with probability 99% Tempfile successfully deleted.

03 -===- C:\Downloads\Music\Джаз\Terry Garland - Out Where The Blue Begins - 2001\03 - Poor Boy Blues.flac Extracted successfully Conclusion: This track looks like CDDA with probability 100% Tempfile successfully deleted.

04 -===- C:\Downloads\Music\Джаз\Terry Garland - Out Where The Blue Begins - 2001\04 - Courtesy Of Love.flac Extracted successfully Conclusion: This track looks like CDDA with probability 100% Tempfile successfully deleted.

05 -===- C:\Downloads\Music\Джаз\Terry Garland - Out Where The Blue Begins - 2001\05 - Champagne And Reefer.flac Extracted successfully Conclusion: This track looks like CDDA with probability 100% Tempfile successfully deleted.

06 -===- C:\Downloads\Music\Джаз\Terry Garland - Out Where The Blue Begins - 2001\06 - Blues Fell This Morning.flac Extracted successfully Conclusion: This track looks like CDDA with probability 100% Tempfile successfully deleted.

07 -===- C:\Downloads\Music\Джаз\Terry Garland - Out Where The Blue Begins - 2001\07 - Going Home.flac Extracted successfully Conclusion: This track looks like CDDA with probability 99% Tempfile successfully deleted.

08 -===- C:\Downloads\Music\Джаз\Terry Garland - Out Where The Blue Begins - 2001\08 - Running Back To You.flac Extracted successfully Conclusion: This track looks like CDDA with probability 99% Tempfile successfully deleted.

09 -===- C:\Downloads\Music\Джаз\Terry Garland - Out Where The Blue Begins - 2001\09 - Can't Be Satisfied.flac Extracted successfully Conclusion: This track looks like CDDA with probability 100% Tempfile successfully deleted.

10 -===- C:\Downloads\Music\Джаз\Terry Garland - Out Where The Blue Begins - 2001\10 - My Baby Left Town.flac Extracted successfully Conclusion: This track looks like CDDA with probability 100% Tempfile successfully deleted.

11 -===- C:\Downloads\Music\Джаз\Terry Garland - Out Where The Blue Begins - 2001\11 - Out Where The Blue Begins.flac Extracted successfully Conclusion: This track looks like CDDA with probability 100% Tempfile successfully deleted.

12 -===- C:\Downloads\Music\Джаз\Terry Garland - Out Where The Blue Begins - 2001\12 - Dust My Broom.flac Extracted successfully Conclusion: This track looks like CDDA with probability 100% Tempfile successfully deleted.

Finished at: воскресенье, 06. 06. 2010. - 19:47.10 (operation time: 0:09.30)
Terry Garland (vocals, acoustic & electric guitars);
Mark Wenner (harmonica);
Richard Ray, John Stanley (tenor saxophone);
Mike Phillips, Howard Smith (baritone saxophone);
Dave Triplett, Bruce Swartz (trumpet).

Трекер:  [ 04-Фев-2012 19:57 ]

  

Скачать .torrent

Размер .torrent файла 13 KB


Размер: 293 MB
Хэш (hash) релиза: 1c61acc0eb370b5d4ba4d0bfa7a0878bed5d5301

Еще никто не оставлял запись к записи скачать торрент Terry Garland - Out Where The Blue Begins - 2001, FLAC . Будь первым!

!Обратная связь