Скачать через торрент музыку Tab Benoit, Debbie Davies, Kenny Neal - Homesick For The Road - 1999, APE бесплатно без регистрации torrent

Если у вас наблюдаются проблемы со скриншотами, переходом по ссылками, скачиванием торрентов - проблемы в блокировщике рекламы AdBlock. #хорошегоДня!


Статистика раздачи
Размер:  334 MB   |    Зарегистрирован:  5 лет 8 месяцев   |    .torrent скачан:  28 раз   |   
Раздают:  1  
   
Загрузка...
 
Автор Сообщение

Umakiro

avatar Umakiro


Tab Benoit, Debbie Davies, Kenny Neal - Homesick For The Road

Жанр: Blues
Страна-производитель диска: USA
Год издания диска: 1999
Издатель (лейбл): Telarc
Номер по каталогу: CD-83454
Страна: USA
Аудиокодек: APE (*.ape)
Тип рипа: image+.cue
Битрейт аудио: lossless
Продолжительность: 54:25.33
Источник (релизер): собственный диск
Наличие сканов в содержимом раздачи: да
Треклист:
01. Deal With It [0:04:41.82]
02. Down In The Swamp [0:05:19.90]
03. Bop 'Til I Drop [0:04:17.49]
04. So Cold [0:04:05.50]
05. I Put A Spell On You [0:04:51.60]
06. Money [0:04:46.89]
07. Luberta [0:04:55.04]
08. I Can't Afford Myself [0:05:42.93]
09. I've Been Mistreated [0:03:26.82]
10. Night Life [0:03:59.97]
11. Still Called The Blues [0:04:35.73]
12. Homesick For The Road [0:03:41.60]
 
Exact Audio Copy V1.0 beta 3 from 29. August 2011

Отчёт EAC об извлечении, выполненном 4. февраля 2012, 11:54

Tab Benoit, Debbie Davies, Kenny Neal / Homesick For The Road

Дисковод: SONY CD-RW CRX230ED Adapter: 0 ID: 1

Режим чтения : ДостоверностьИспользование точного потока : ДаОтключение кэша аудио : ДаИспользование указателей C2 : Нет

Коррекция смещения при чтении : 6Способность читать области Lead-in и Lead-out : НетЗаполнение пропущенных сэмплов тишиной : ДаУдаление блоков с тишиной в начале и конце : НетПри вычислениях CRC использовались нулевые сэмплы : ДаИнтерфейс : Установленный внешний ASPI-интерфейс

Выходной формат : Внутренние WAV-операцииФормат сэмплов : 44.100 Гц; 16 бит; стерео

TOC извлечённого CD

Трек | Старт | Длительность | Начальный сектор | Конечный сектор --------------------------------------------------------------------- 1 | 0:00.00 | 4:41.62 | 0 | 21136 2 | 4:41.62 | 5:19.68 | 21137 | 45129 3 | 10:01.55 | 4:17.37 | 45130 | 64441 4 | 14:19.17 | 4:05.38 | 64442 | 82854 5 | 18:24.55 | 4:51.45 | 82855 | 104724 6 | 23:16.25 | 4:46.67 | 104725 | 126241 7 | 28:03.17 | 4:55.03 | 126242 | 148369 8 | 32:58.20 | 5:42.70 | 148370 | 174089 9 | 38:41.15 | 3:26.62 | 174090 | 189601 10 | 42:08.02 | 3:59.73 | 189602 | 207599 11 | 46:08.00 | 4:35.55 | 207600 | 228279 12 | 50:43.55 | 3:41.45 | 228280 | 244899

Характеристики диапазона извлечения и сообщения об ошибках

Выбранный диапазон

Имя файла E:\MusicCD\Torrent\Tab Benoit, Debbie Davies, Kenny Neal - Homesick For The Road\Tab Benoit, Debbie Davies, Kenny Neal - Homesick For The Road.wav

Пиковый уровень 100.0 % Скорость извлечения 8.4 X Качество диапазона 100.0 % CRC теста E9BC1736 CRC копии E9BC1736 Копирование... OK

Ошибок не произошло

AccurateRip: сводка

Трек 1 : извлечено точно (доверие 3) [5DBED325] (AR v1)Трек 2 : извлечено точно (доверие 3) [A17AEEEE] (AR v1)Трек 3 : извлечено точно (доверие 3) [36860C40] (AR v1)Трек 4 : извлечено точно (доверие 3) [3C4BA1B7] (AR v1)Трек 5 : извлечено точно (доверие 3) [DE662F33] (AR v1)Трек 6 : извлечено точно (доверие 3) [940F91CB] (AR v1)Трек 7 : извлечено точно (доверие 3) [478DD211] (AR v1)Трек 8 : извлечено точно (доверие 3) [FC7BE0D9] (AR v1)Трек 9 : извлечено точно (доверие 3) [EC9C9894] (AR v1)Трек 10 : извлечено точно (доверие 3) [D74AF3A8] (AR v1)Трек 11 : извлечено точно (доверие 3) [9496D75F] (AR v1)Трек 12 : извлечено точно (доверие 3) [6864FAD2] (AR v1)

Все треки извлечены точно

Конец отчёта

==== Контрольная сумма отчёта FFF2FD2E0A4AF27B9C21511302F0384DAB4A99B4ABA23879BB783A9D19A31D97 ====
 
REM GENRE BluesREM DATE 1999REM DISCID 9A0CC10CREM COMMENT "ExactAudioCopy v1.0b3"PERFORMER "Tab Benoit, Debbie Davies, Kenny Neal"TITLE "Homesick For The Road"FILE "Tab Benoit, Debbie Davies, Kenny Neal - Homesick For The Road.ape" WAVE TRACK 01 AUDIO TITLE "Deal With It" PERFORMER "Tab Benoit, Debbie Davies, Kenny Neal" INDEX 01 00:00:00 TRACK 02 AUDIO TITLE "Down In The Swamp" PERFORMER "Tab Benoit, Debbie Davies, Kenny Neal" INDEX 00 04:40:25 INDEX 01 04:41:62 TRACK 03 AUDIO TITLE "Bop 'Til I Drop" PERFORMER "Tab Benoit, Debbie Davies, Kenny Neal" INDEX 00 10:00:25 INDEX 01 10:01:55 TRACK 04 AUDIO TITLE "So Cold" PERFORMER "Tab Benoit, Debbie Davies, Kenny Neal" INDEX 00 14:17:25 INDEX 01 14:19:17 TRACK 05 AUDIO TITLE "I Put A Spell On You" PERFORMER "Tab Benoit, Debbie Davies, Kenny Neal" INDEX 00 18:23:25 INDEX 01 18:24:55 TRACK 06 AUDIO TITLE "Money" PERFORMER "Tab Benoit, Debbie Davies, Kenny Neal" INDEX 00 23:15:25 INDEX 01 23:16:25 TRACK 07 AUDIO TITLE "Luberta" PERFORMER "Tab Benoit, Debbie Davies, Kenny Neal" INDEX 00 28:01:62 INDEX 01 28:03:17 TRACK 08 AUDIO TITLE "I Can't Afford Myself" PERFORMER "Tab Benoit, Debbie Davies, Kenny Neal" INDEX 00 32:56:25 INDEX 01 32:58:20 TRACK 09 AUDIO TITLE "I've Been Mistreated" PERFORMER "Tab Benoit, Debbie Davies, Kenny Neal" INDEX 00 38:40:25 INDEX 01 38:41:15 TRACK 10 AUDIO TITLE "Night Life" PERFORMER "Tab Benoit, Debbie Davies, Kenny Neal" INDEX 00 42:06:62 INDEX 01 42:08:02 TRACK 11 AUDIO TITLE "Still Called The Blues" PERFORMER "Tab Benoit, Debbie Davies, Kenny Neal" INDEX 00 46:06:25 INDEX 01 46:08:00 TRACK 12 AUDIO TITLE "Homesick For The Road" PERFORMER "Tab Benoit, Debbie Davies, Kenny Neal" INDEX 00 50:42:25 INDEX 01 50:43:55
Рип с фирменного диска из моей коллекции.
Сканы на 600 dpi в комплекте.
Исключительно в целях ознакомления!
Рецензия на диск:
http://www.blues.ru/data/albumview.aspx?cdid=1639

Спасибо сайту Blues.ru за предоставленную информацию!


Трекер:  [ 04-Фев-2012 19:56 ]

  

Скачать .torrent

Размер .torrent файла 14 KB


Размер: 334 MB
Хэш (hash) релиза: 628525b4c9582097e38c3adcf53c9bc015dd41c9

Еще никто не оставлял запись к записи скачать торрент Tab Benoit, Debbie Davies, Kenny Neal - Homesick For The Road - 1999, APE . Будь первым!

!Обратная связь