Скачать через торрент музыку Kingtone - Law of the Jungle - 2011, FLAC бесплатно без регистрации torrent

Если у вас наблюдаются проблемы со скриншотами, переходом по ссылками, скачиванием торрентов - проблемы в блокировщике рекламы AdBlock. #хорошегоДня!


Статистика раздачи
Размер:  337 MB   |    Зарегистрирован:  5 лет 8 месяцев   |    .torrent скачан:  24 раза   |   
Раздают:  1  
   
Загрузка...
 
Автор Сообщение

Umakiro

avatar Umakiro


Kingtone

Law of the Jungle
Жанр: Blues
Страна-производитель диска: USA
Год издания диска: 2011
Аудиокодек: FLAC (*.flac)
Тип рипа: image+.cue
Битрейт аудио: lossless
Продолжительность: 49:07
Источник (релизер): ©СЁРФ-Маrаtones aka izia1956
Наличие сканов в содержимом раздачи: да


01. Fine (5:35)
02. The Hump (3:48)
03. Clean Machine (5:24)
04. Law of the Jungle (5:14)
05. B-Wing Blues (5:01)
06. Life in the City (3:00)
07. Temperature (3:00)
08. The Game Is Over (2:40)
09. Woman's Man (9:31)
10. My Baby Gone Walking (3:01)
11. Wild Weekend (2:48)
 
Exact Audio Copy V0.99 prebeta 4 from 23. January 2008

Отчёт EAC об извлечении, выполненном 9. января 2012, 9:57

Kingtone / Law of the Jungle

Дисковод: PLEXTOR DVDR PX-880SA Adapter: 1 ID: 1

Режим чтения : ДостоверностьИспользование точного потока : ДаОтключение кэша аудио : ДаИспользование указателей C2 : Нет

Коррекция смещения при чтении : 6Способность читать области Lead-in и Lead-out : НетЗаполнение пропущенных сэмплов тишиной : ДаУдаление блоков с тишиной в начале и конце : НетПри вычислениях CRC использовались нулевые сэмплы : ДаИнтерфейс : Встроенный Win32-интерфейс для Win NT/2000

Выходной формат : Пользовательский кодировщикВыбранный битрейт : 1024 kBit/sКачество : ВысокийДобавление ID3-тэга : НетУтилита сжатия : C:\Program Files\Exact Audio Copy\FLAC\FLAC.EXEДополнительные параметры : -6 -V -T "ARTIST=%a" -T "TITLE=%t" -T "ALBUM=%g" -T "DATE=%y" -T "TRACKNUMBER=%n" -T "GENRE=%m" -T "COMMENT=%e" %s -o %d

TOC извлечённого CD

Трек | Старт | Длительность | Начальный сектор | Конечный сектор --------------------------------------------------------------------- 1 | 0:00.00 | 5:35.17 | 0 | 25141 2 | 5:35.17 | 3:48.70 | 25142 | 42311 3 | 9:24.12 | 5:24.30 | 42312 | 66641 4 | 14:48.42 | 5:14.44 | 66642 | 90235 5 | 20:03.11 | 5:01.23 | 90236 | 112833 6 | 25:04.34 | 3:00.20 | 112834 | 126353 7 | 28:04.54 | 3:00.01 | 126354 | 139854 8 | 31:04.55 | 2:40.58 | 139855 | 151912 9 | 33:45.38 | 9:31.61 | 151913 | 194798 10 | 43:17.24 | 3:01.17 | 194799 | 208390 11 | 46:18.41 | 2:48.37 | 208391 | 221027

Характеристики диапазона извлечения и сообщения об ошибках

Выбранный диапазон

Имя файла J:\BitComet\Kingtone - Law of the Jungle(2011)(flac)\Kingtone - Law of the Jungle.wav

Пиковый уровень 100.0 % Качество диапазона 100.0 % CRC теста E4168B0B CRC копии E4168B0B Копирование... OK

Ошибок не произошло

AccurateRip: сводка

Трек 1 нет в базе данныхТрек 2 нет в базе данныхТрек 3 нет в базе данныхТрек 4 нет в базе данныхТрек 5 нет в базе данныхТрек 6 нет в базе данныхТрек 7 нет в базе данныхТрек 8 нет в базе данныхТрек 9 нет в базе данныхТрек 10 нет в базе данныхТрек 11 нет в базе данных

Ни одного трека нет в базе AccurateRip

Конец отчёта
Доп. информация: БЛЮЗ-МАРАФОН - " С БЛЮЗом по жизни" продолжает - Kingtone!!!

Рип сделан собственноручно.
Сканы в папке.

Ознакомиться(прослушать) можно здесь

Рип от ©СЁРФ-Маrаtones aka izia1956

Трекер:  [ 04-Фев-2012 19:56 ]

  

Скачать .torrent

Размер .torrent файла 14 KB


Размер: 337 MB
Хэш (hash) релиза: f0b681b09b546b4bd3ae15b96dc1fa808632e39b

Еще никто не оставлял запись к записи скачать торрент Kingtone - Law of the Jungle - 2011, FLAC . Будь первым!

!Обратная связь