Скачать через торрент музыку BlueShot - Crack the Seal - 2006, APE бесплатно без регистрации torrent

Если у вас наблюдаются проблемы со скриншотами, переходом по ссылками, скачиванием торрентов - проблемы в блокировщике рекламы AdBlock. #хорошегоДня!


Статистика раздачи
Размер:  388 MB   |    Зарегистрирован:  5 лет 8 месяцев   |    .torrent скачан:  39 раз   |   
Раздают:  1  
   
Загрузка...
 
Автор Сообщение

Umakiro

avatar Umakiro


BlueShot - Crack the Seal

Жанр: Blues-Rock
Год издания диска: 2006
Аудиокодек: APE (*.ape)
Тип рипа: image+.cue
Битрейт аудио: lossless
Продолжительность: 58:20
Источник (релизер): CD
Наличие сканов в содержимом раздачи: да
Треклист:
01. Land of the Tall (Intro) [0:00:34.66]
02. It's so easy [0:04:29.56]
03. Train gone blues [0:03:51.94]
04. Hey baby (naked love) [0:04:39.69]
05. Crossroads (acustic) [0:02:41.80]
06. Crossroads [0:03:17.44]
07. Break down [0:04:48.18]
08. Indian blues [0:01:52.14]
09. Save me [0:05:39.33]
10. Home [0:02:12.61]
11. Redhouse blues [0:07:31.14]
12. Over the hill [0:03:25.37]
13. Land of the tall [0:04:11.14]
14. Evil spell [0:05:34.73]
15. Nasty sticks [0:03:30.68]
 
Exact Audio Copy V0.99 prebeta 4 from 23. January 2008

Отчёт EAC об извлечении, выполненном 18. сентября 2010, 0:47

BlueShot / Crack the Seal

Дисковод: PLEXTOR DVDR PX-820A Adapter: 3 ID: 1

Режим чтения : ДостоверностьИспользование точного потока : ДаОтключение кэша аудио : ДаИспользование указателей C2 : Нет

Коррекция смещения при чтении : 48Способность читать области Lead-in и Lead-out : НетЗаполнение пропущенных сэмплов тишиной : ДаУдаление блоков с тишиной в начале и конце : НетПри вычислениях CRC использовались нулевые сэмплы : ДаИнтерфейс : Встроенный Win32-интерфейс для Win NT/2000

Выходной формат : Внутренние WAV-операцииФормат сэмплов : 44.100 Гц; 16 бит; стерео

TOC извлечённого CD

Трек | Старт | Длительность | Начальный сектор | Конечный сектор --------------------------------------------------------------------- 1 | 0:00.00 | 0:34.50 | 0 | 2599 2 | 0:34.50 | 4:29.42 | 2600 | 22816 3 | 5:04.17 | 3:51.71 | 22817 | 40212 4 | 8:56.13 | 4:39.52 | 40213 | 61189 5 | 13:35.65 | 2:41.60 | 61190 | 73324 6 | 16:17.50 | 3:17.33 | 73325 | 88132 7 | 19:35.08 | 4:48.14 | 88133 | 109746 8 | 24:23.22 | 1:52.11 | 109747 | 118157 9 | 26:15.33 | 5:39.25 | 118158 | 143607 10 | 31:54.58 | 2:12.46 | 143608 | 153553 11 | 34:07.29 | 7:31.11 | 153554 | 187389 12 | 41:38.40 | 3:25.28 | 187390 | 202792 13 | 45:03.68 | 4:11.11 | 202793 | 221628 14 | 49:15.04 | 5:34.55 | 221629 | 246733 15 | 54:49.59 | 3:30.51 | 246734 | 262534

Характеристики диапазона извлечения и сообщения об ошибках

Выбранный диапазон

Имя файла D:\КОЛЛЕКЦИЯ 7\BLUESHOT\BlueShot - Crack the Seal.wav

Пиковый уровень 99.9 % Качество диапазона 100.0 % CRC копии E4EE2B2D Копирование... OK

Ошибок не произошло

AccurateRip: сводка

Трек 1 нет в базе данныхТрек 2 нет в базе данныхТрек 3 нет в базе данныхТрек 4 нет в базе данныхТрек 5 нет в базе данныхТрек 6 нет в базе данныхТрек 7 нет в базе данныхТрек 8 нет в базе данныхТрек 9 нет в базе данныхТрек 10 нет в базе данныхТрек 11 нет в базе данныхТрек 12 нет в базе данныхТрек 13 нет в базе данныхТрек 14 нет в базе данныхТрек 15 нет в базе данных

Ни одного трека нет в базе AccurateRip

Конец отчёта


Трекер:  [ 01-Фев-2012 18:13 ]

  

Скачать .torrent

Размер .torrent файла 16 KB


Размер: 388 MB
Хэш (hash) релиза: 7bac57b4a3918a2299a46de32f34e5d86b1cc158

Еще никто не оставлял запись к записи скачать торрент BlueShot - Crack the Seal - 2006, APE . Будь первым!

!Обратная связь