Скачать через торрент музыку FireWolfe - FireWolfe - 2011, APE бесплатно без регистрации torrent

Если у вас наблюдаются проблемы со скриншотами, переходом по ссылками, скачиванием торрентов - проблемы в блокировщике рекламы AdBlock. #хорошегоДня!


Статистика раздачи
Размер:  354 MB   |    Зарегистрирован:  5 лет 8 месяцев   |    .torrent скачан:  35 раз   |   
Раздают:  1  
   
Загрузка...
 
Автор Сообщение

Umakiro

avatar Umakiro


FireWolfe - FireWolfe

Жанр: Power Metal
Год издания диска: 2011
Аудиокодек: APE (*.ape)
Тип рипа: image+.cue
Битрейт аудио: lossless
Продолжительность: 52:57
Источник (релизер): Cвой диск
Наличие сканов в содержимом раздачи: да
(Front, Back)

Треклист:
01. Air Attack [0:04:45.42]
02. Unholy [0:05:47.12]
03. FireWolfe [0:05:32.97]
04. Armed Forces [0:06:14.00]
05. Back from Hell [0:05:32.73]
06. Wicked Words [0:05:24.61]
07. Ice Wizard [0:04:39.81]
08. Tempter [0:05:46.00]
09. Mod [0:04:10.85]
10. Feel the Thunder [0:05:03.93]
 
Exact Audio Copy V0.99 prebeta 4 from 23. January 2008

Отчёт EAC об извлечении, выполненном 19. ноября 2011, 12:24

FireWolfe / FireWolfe

Дисковод: Optiarc DVD RW AD-7173A Adapter: 0 ID: 1

Режим чтения : ДостоверностьИспользование точного потока : ДаОтключение кэша аудио : ДаИспользование указателей C2 : Нет

Коррекция смещения при чтении : 48Способность читать области Lead-in и Lead-out : НетЗаполнение пропущенных сэмплов тишиной : ДаУдаление блоков с тишиной в начале и конце : НетПри вычислениях CRC использовались нулевые сэмплы : ДаИнтерфейс : Встроенный Win32-интерфейс для Win NT/2000

Выходной формат : Внутренние WAV-операцииФормат сэмплов : 44.100 Гц; 16 бит; стерео

TOC извлечённого CD

Трек | Старт | Длительность | Начальный сектор | Конечный сектор --------------------------------------------------------------------- 1 | 0:00.00 | 4:45.32 | 0 | 21406 2 | 4:45.32 | 5:47.09 | 21407 | 47440 3 | 10:32.41 | 5:32.73 | 47441 | 72413 4 | 16:05.39 | 6:14.00 | 72414 | 100463 5 | 22:19.39 | 5:32.55 | 100464 | 125418 6 | 27:52.19 | 5:24.46 | 125419 | 149764 7 | 33:16.65 | 4:39.61 | 149765 | 170750 8 | 37:56.51 | 5:46.00 | 170751 | 196700 9 | 43:42.51 | 4:10.64 | 196701 | 215514 10 | 47:53.40 | 5:03.70 | 215515 | 238309

Характеристики диапазона извлечения и сообщения об ошибках

Выбранный диапазон

Имя файла E:\РАЗДАЧИ\FireWolfe - FireWolfe (2011)\FireWolfe - FireWolfe.wav

Пиковый уровень 100.0 % Качество диапазона 100.0 % CRC теста 495B1618 CRC копии 495B1618 Копирование... OK

Ошибок не произошло

AccurateRip: сводка

Трек 1 точность не определена (достоверность 1) [E068015F], AccurateRip вернул [DBD451CA]Трек 2 точность не определена (достоверность 1) [23C56855], AccurateRip вернул [ECC98062]Трек 3 точность не определена (достоверность 1) [4C940410], AccurateRip вернул [6B6AF7FD]Трек 4 точность не определена (достоверность 1) [AE921C82], AccurateRip вернул [DECD858D]Трек 5 точность не определена (достоверность 1) [2736C64D], AccurateRip вернул [5091C93D]Трек 6 точность не определена (достоверность 1) [08E93386], AccurateRip вернул [A000490B]Трек 7 точность не определена (достоверность 1) [2E079A31], AccurateRip вернул [5BEC7048]Трек 8 точность не определена (достоверность 1) [9A645DAC], AccurateRip вернул [8CD89435]Трек 9 точность не определена (достоверность 1) [5C691F03], AccurateRip вернул [1112F835]Трек 10 точность не определена (достоверность 1) [CD37319A], AccurateRip вернул [F4E96108]

Ни один трек не прошёл проверки на точностьВ вашей базе может быть иной вариант штамповки диска

Конец отчёта


Трекер:  [ 01-Фев-2012 18:13 ]

  

Скачать .torrent

Размер .torrent файла 14 KB


Размер: 354 MB
Хэш (hash) релиза: 050b5c54c2cad20e568c323429f62b7c5979413c

Еще никто не оставлял запись к записи скачать торрент FireWolfe - FireWolfe - 2011, APE . Будь первым!

!Обратная связь