Скачать через торрент музыку Sharrie Williams - Out Of The Dark - 2011, APE бесплатно без регистрации torrent

Если у вас наблюдаются проблемы со скриншотами, переходом по ссылками, скачиванием торрентов - проблемы в блокировщике рекламы AdBlock. #хорошегоДня!


Статистика раздачи
Размер:  364 MB   |    Зарегистрирован:  5 лет 8 месяцев   |    .torrent скачан:  25 раз   |   
Раздают:  1  
   
Загрузка...
 
Автор Сообщение

Umakiro

avatar Umakiro


Sharrie Williams - Out Of The Dark

Жанр: Soul-Blues
Год издания диска: 2011
Аудиокодек: APE (*.ape)
Тип рипа: image+.cue
Битрейт аудио: lossless
Продолжительность: 54:15
Источник (релизер): CD
Наличие сканов в содержимом раздачи: да
Треклист:
01. Can't Nobody [0:04:47.48]
02. City Limit Musicians [0:03:35.40]
03. Out of the Dark [0:05:08.57]
04. Whats Wrong With You [0:03:37.98]
05. Need More Money [0:02:49.66]
06. Although I Sing the Blues [0:03:11.17]
07. Prodigal Son [0:03:21.00]
08. Gone Too Long [0:04:28.64]
09. Gatekeepers [0:03:21.26]
10. What Kind of Man [0:04:36.88]
11. Breakin' Out [0:03:01.96]
12. Choices [0:03:23.69]
13. My Old Piano [0:03:03.49]
14. R.I.P [0:05:48.09]
 
Exact Audio Copy V0.99 prebeta 4 from 23. January 2008

Отчёт EAC об извлечении, выполненном 23. ноября 2011, 1:03

Sharrie Williams / Out Of The Dark

Дисковод: Optiarc DVD RW AD-7173A Adapter: 0 ID: 1

Режим чтения : ДостоверностьИспользование точного потока : ДаОтключение кэша аудио : ДаИспользование указателей C2 : Нет

Коррекция смещения при чтении : 48Способность читать области Lead-in и Lead-out : НетЗаполнение пропущенных сэмплов тишиной : ДаУдаление блоков с тишиной в начале и конце : НетПри вычислениях CRC использовались нулевые сэмплы : ДаИнтерфейс : Встроенный Win32-интерфейс для Win NT/2000

Выходной формат : Внутренние WAV-операцииФормат сэмплов : 44.100 Гц; 16 бит; стерео

TOC извлечённого CD

Трек | Старт | Длительность | Начальный сектор | Конечный сектор --------------------------------------------------------------------- 1 | 0:00.00 | 4:47.36 | 0 | 21560 2 | 4:47.36 | 3:35.30 | 21561 | 37715 3 | 8:22.66 | 5:08.43 | 37716 | 60858 4 | 13:31.34 | 3:37.74 | 60859 | 77207 5 | 17:09.33 | 2:49.50 | 77208 | 89932 6 | 19:59.08 | 3:11.13 | 89933 | 104270 7 | 23:10.21 | 3:21.00 | 104271 | 119345 8 | 26:31.21 | 4:28.48 | 119346 | 139493 9 | 30:59.69 | 3:21.20 | 139494 | 154588 10 | 34:21.14 | 4:36.66 | 154589 | 175354 11 | 38:58.05 | 3:01.72 | 175355 | 189001 12 | 42:00.02 | 3:23.52 | 189002 | 204278 13 | 45:23.54 | 3:03.37 | 204279 | 218040 14 | 48:27.16 | 5:48.07 | 218041 | 244147

Характеристики диапазона извлечения и сообщения об ошибках

Выбранный диапазон

Имя файла D:\КОЛЛЕКЦИЯ 12\Новая папка (6)\Sharrie Williams - Out Of The Dark.wav

Пиковый уровень 96.6 % Качество диапазона 100.0 % CRC теста ADC33DDF CRC копии ADC33DDF Копирование... OK

Ошибок не произошло

AccurateRip: сводка

Трек 1 нет в базе данныхТрек 2 нет в базе данныхТрек 3 нет в базе данныхТрек 4 нет в базе данныхТрек 5 нет в базе данныхТрек 6 нет в базе данныхТрек 7 нет в базе данныхТрек 8 нет в базе данныхТрек 9 нет в базе данныхТрек 10 нет в базе данныхТрек 11 нет в базе данныхТрек 12 нет в базе данныхТрек 13 нет в базе данныхТрек 14 нет в базе данных

Ни одного трека нет в базе AccurateRip

Конец отчёта


Трекер:  [ 01-Фев-2012 18:13 ]

  

Скачать .torrent

Размер .torrent файла 15 KB


Размер: 364 MB
Хэш (hash) релиза: 388f88e17977f52b04ab7c00c806052225b1d1cf

Еще никто не оставлял запись к записи скачать торрент Sharrie Williams - Out Of The Dark - 2011, APE . Будь первым!

!Обратная связь