Скачать через торрент музыку Gregg Wright - Lightning Strike - 2002, APE бесплатно без регистрации torrent

Если у вас наблюдаются проблемы со скриншотами, переходом по ссылками, скачиванием торрентов - проблемы в блокировщике рекламы AdBlock. #хорошегоДня!


Статистика раздачи
Размер:  321 MB   |    Зарегистрирован:  5 лет 8 месяцев   |    .torrent скачан:  29 раз   |   
Раздают:  1  
   
Загрузка...
 
Автор Сообщение

Umakiro

avatar Umakiro


Gregg Wright - Lightning Strike

Жанр: Blues
Год издания диска: 2002
Аудиокодек: APE (*.ape)
Тип рипа: image+.cue
Битрейт аудио: lossless
Продолжительность: 47"02
Источник (релизер): CD
Наличие сканов в содержимом раздачи: да
Треклист:
01. Millennium Dawn [0:01:26.40]
02. Livin' For Real [0:05:10.04]
03. Nocturne [0:05:13.88]
04. HooDoo Man [0:03:36.02]
05. Fast One [0:07:26.18]
06. G's Blues (Instrumental) [0:04:46.64]
07. My Daddy Was A Rolling Stone [0:03:06.20]
08. Mamma Made Gumbo [0:03:54.20]
09. A House Divided [0:07:33.41]
10. Blues For The 21st Century (Instrumental) [0:04:48.89]
 
Exact Audio Copy V0.99 prebeta 4 from 23. January 2008

Отчёт EAC об извлечении, выполненном 23. ноября 2011, 16:52

Gregg Wright / Lightning Strike

Дисковод: Optiarc DVD RW AD-7173A Adapter: 0 ID: 1

Режим чтения : ДостоверностьИспользование точного потока : ДаОтключение кэша аудио : ДаИспользование указателей C2 : Нет

Коррекция смещения при чтении : 48Способность читать области Lead-in и Lead-out : НетЗаполнение пропущенных сэмплов тишиной : ДаУдаление блоков с тишиной в начале и конце : НетПри вычислениях CRC использовались нулевые сэмплы : ДаИнтерфейс : Встроенный Win32-интерфейс для Win NT/2000

Выходной формат : Внутренние WAV-операцииФормат сэмплов : 44.100 Гц; 16 бит; стерео

TOC извлечённого CD

Трек | Старт | Длительность | Начальный сектор | Конечный сектор --------------------------------------------------------------------- 1 | 0:00.00 | 1:26.30 | 0 | 6479 2 | 1:26.30 | 5:10.03 | 6480 | 29732 3 | 6:36.33 | 5:13.66 | 29733 | 53273 4 | 11:50.24 | 3:36.02 | 53274 | 69475 5 | 15:26.26 | 7:26.14 | 69476 | 102939 6 | 22:52.40 | 4:46.48 | 102940 | 124437 7 | 27:39.13 | 3:06.15 | 124438 | 138402 8 | 30:45.28 | 3:54.15 | 138403 | 155967 9 | 34:39.43 | 7:33.31 | 155968 | 189973 10 | 42:12.74 | 4:48.67 | 189974 | 211640

Характеристики диапазона извлечения и сообщения об ошибках

Выбранный диапазон

Имя файла D:\КОЛЛЕКЦИЯ 12\Новая папка (19)\Gregg Wright - Lightning Strike.wav

Пиковый уровень 99.4 % Качество диапазона 99.9 % CRC теста 685438FA CRC копии 685438FA Копирование... OK

Ошибок не произошло

AccurateRip: сводка

Трек 1 нет в базе данныхТрек 2 нет в базе данныхТрек 3 нет в базе данныхТрек 4 нет в базе данныхТрек 5 нет в базе данныхТрек 6 нет в базе данныхТрек 7 нет в базе данныхТрек 8 нет в базе данныхТрек 9 нет в базе данныхТрек 10 нет в базе данных

Ни одного трека нет в базе AccurateRip

Конец отчёта


Трекер:  [ 01-Фев-2012 18:12 ]

  

Скачать .torrent

Размер .torrent файла 13 KB


Размер: 321 MB
Хэш (hash) релиза: 88b7006c51768f4d1f8fac642787a6c3d4089794

Еще никто не оставлял запись к записи скачать торрент Gregg Wright - Lightning Strike - 2002, APE . Будь первым!

!Обратная связь