Скачать через торрент музыку Andy Just - Dont Cry - 1994, APE бесплатно без регистрации torrent

Если у вас наблюдаются проблемы со скриншотами, переходом по ссылками, скачиванием торрентов - проблемы в блокировщике рекламы AdBlock. #хорошегоДня!


Статистика раздачи
Размер:  350 MB   |    Зарегистрирован:  5 лет 8 месяцев   |    .torrent скачан:  22 раза   |   
Раздают:  1  
   
Загрузка...
 
Автор Сообщение

Umakiro

avatar Umakiro


Andy Just - Don't Cry

Жанр: Blues, Harmonica
Год издания диска: 1994
Аудиокодек: APE (*.ape)
Тип рипа: image+.cue
Битрейт аудио: lossless
Продолжительность: 51:44
Источник (релизер): CD
Наличие сканов в содержимом раздачи: да
Треклист:
01. talk is cheap [0:02:49.53]
02. toes up [0:03:24.86]
03. mighty long time [0:05:20.73]
04. the slam [0:02:38.30]
05. treat me right [0:03:53.62]
06. back trackin' [0:04:13.93]
07. struttin' at the rooster [0:02:25.17]
08. don't cry [0:02:06.49]
09. dance with me [0:04:02.80]
10. she's sweet [0:05:29.06]
11. misery [0:02:47.57]
12. oh why [0:06:15.36]
13. fool for lover [0:02:54.10]
14. one sunny day [0:03:22.80]
 
Exact Audio Copy V0.99 prebeta 4 from 23. January 2008

Отчёт EAC об извлечении, выполненном 12. декабря 2011, 10:02

Andy Just / Don't Cry

Дисковод: Optiarc DVD RW AD-7173A Adapter: 0 ID: 1

Режим чтения : ДостоверностьИспользование точного потока : ДаОтключение кэша аудио : ДаИспользование указателей C2 : Нет

Коррекция смещения при чтении : 48Способность читать области Lead-in и Lead-out : НетЗаполнение пропущенных сэмплов тишиной : ДаУдаление блоков с тишиной в начале и конце : НетПри вычислениях CRC использовались нулевые сэмплы : ДаИнтерфейс : Встроенный Win32-интерфейс для Win NT/2000

Выходной формат : Внутренние WAV-операцииФормат сэмплов : 44.100 Гц; 16 бит; стерео

TOC извлечённого CD

Трек | Старт | Длительность | Начальный сектор | Конечный сектор --------------------------------------------------------------------- 1 | 0:00.00 | 2:49.40 | 0 | 12714 2 | 2:49.40 | 3:24.65 | 12715 | 28079 3 | 6:14.30 | 5:20.55 | 28080 | 52134 4 | 11:35.10 | 2:38.23 | 52135 | 64007 5 | 14:13.33 | 3:53.47 | 64008 | 81529 6 | 18:07.05 | 4:13.70 | 81530 | 100574 7 | 22:21.00 | 2:25.13 | 100575 | 111462 8 | 24:46.13 | 2:06.37 | 111463 | 120949 9 | 26:52.50 | 4:02.60 | 120950 | 139159 10 | 30:55.35 | 5:29.05 | 139160 | 163839 11 | 36:24.40 | 2:47.43 | 163840 | 176407 12 | 39:12.08 | 6:15.27 | 176408 | 204559 13 | 45:27.35 | 2:54.08 | 204560 | 217617 14 | 48:21.43 | 3:22.60 | 217618 | 232827

Характеристики диапазона извлечения и сообщения об ошибках

Выбранный диапазон

Имя файла D:\КОЛЛЕКЦИЯ 00\Новая папка (15)\Andy Just - Don't Cry.wav

Пиковый уровень 100.0 % Качество диапазона 99.9 % CRC теста BEBB391D CRC копии BEBB391D Копирование... OK

Ошибок не произошло

AccurateRip: сводка

Трек 1 точное извлечение (доверие 3) [3920E486]Трек 2 точное извлечение (доверие 3) [7D4C7B03]Трек 3 точное извлечение (доверие 3) [9DED1C35]Трек 4 точное извлечение (доверие 3) [3CBCFAA7]Трек 5 точное извлечение (доверие 3) [AAB78AE9]Трек 6 точное извлечение (доверие 3) [96BE3AE6]Трек 7 точное извлечение (доверие 3) [9E4A3B65]Трек 8 точное извлечение (доверие 3) [F8C8DC23]Трек 9 точное извлечение (доверие 3) [B8FD52AE]Трек 10 точное извлечение (доверие 3) [A4C43D5B]Трек 11 точное извлечение (доверие 3) [97EA489A]Трек 12 точное извлечение (доверие 3) [3D5792C9]Трек 13 точное извлечение (доверие 2) [E830B7F1]Трек 14 точное извлечение (доверие 2) [DA0E2D80]

Все треки извлечены точно

Конец отчёта


Трекер:  [ 01-Фев-2012 18:12 ]

  

Скачать .torrent

Размер .torrent файла 14 KB


Размер: 350 MB
Хэш (hash) релиза: 08d83772283a0dd9b338b63a35a29ff8e480183d

Еще никто не оставлял запись к записи скачать торрент Andy Just - Dont Cry - 1994, APE . Будь первым!

!Обратная связь