Скачать через торрент музыку Roy Buchanan - Live At Rockpalast - 2011 бесплатно без регистрации torrent

Если у вас наблюдаются проблемы со скриншотами, переходом по ссылками, скачиванием торрентов - проблемы в блокировщике рекламы AdBlock. #хорошегоДня!


Статистика раздачи
Размер:  440 MB   |    Зарегистрирован:  5 лет 8 месяцев   |    .torrent скачан:  34 раза   |   
Раздают:  1  
   
Загрузка...
 
Автор Сообщение

Umakiro

avatar Umakiro


Roy Buchanan - Live At Rockpalast

Жанр: Blues
Год издания диска: 2011 (1985)
Аудиокодек: APE (*.ape)
Тип рипа: image+.cue
Битрейт аудио: lossless
Продолжительность: 1:06:43
Источник (релизер): CD
Наличие сканов в содержимом раздачи: да
Треклист:
01. Thing In G (Short Fuse) [0:04:14.77]
02. Green Onions [0:05:23.44]
03. Roy's Blues (Roy's Bluz) [0:10:41.61]
04. Walk Don't Run [0:02:23.26]
05. Sweet Dreams [0:03:39.70]
06. Peter Gunn [0:03:38.90]
07. Blues In D (Blues Shuffle instrumental) [0:05:21.26]
08. Hey Joe [0:04:45.49]
09. Foxy Lady [0:03:38.30]
10. Massiah (Massiah Will Come Again) [0:07:18.69]
11. Night Train [0:03:49.70]
12. Linda Lou [0:04:04.38]
13. Wayfaring Pilgram [0:07:43.86]
 
Exact Audio Copy V0.99 prebeta 4 from 23. January 2008

Отчёт EAC об извлечении, выполненном 25. декабря 2011, 15:52

Roy Buchanan / Live At Rockpalast

Дисковод: Optiarc DVD RW AD-7173A Adapter: 0 ID: 1

Режим чтения : ДостоверностьИспользование точного потока : ДаОтключение кэша аудио : ДаИспользование указателей C2 : Нет

Коррекция смещения при чтении : 48Способность читать области Lead-in и Lead-out : НетЗаполнение пропущенных сэмплов тишиной : ДаУдаление блоков с тишиной в начале и конце : НетПри вычислениях CRC использовались нулевые сэмплы : ДаИнтерфейс : Встроенный Win32-интерфейс для Win NT/2000

Выходной формат : Внутренние WAV-операцииФормат сэмплов : 44.100 Гц; 16 бит; стерео

TOC извлечённого CD

Трек | Старт | Длительность | Начальный сектор | Конечный сектор --------------------------------------------------------------------- 1 | 0:00.00 | 4:14.58 | 0 | 19107 2 | 4:14.58 | 5:23.33 | 19108 | 43365 3 | 9:38.16 | 10:41.46 | 43366 | 91486 4 | 20:19.62 | 2:23.20 | 91487 | 102231 5 | 22:43.07 | 3:39.53 | 102232 | 118709 6 | 26:22.60 | 3:38.68 | 118710 | 135127 7 | 30:01.53 | 5:21.20 | 135128 | 159222 8 | 35:22.73 | 4:45.37 | 159223 | 180634 9 | 40:08.35 | 3:38.23 | 180635 | 197007 10 | 43:46.58 | 7:18.52 | 197008 | 229909 11 | 51:05.35 | 3:49.53 | 229910 | 247137 12 | 54:55.13 | 4:04.29 | 247138 | 265466 13 | 58:59.42 | 7:43.65 | 265467 | 300256

Характеристики диапазона извлечения и сообщения об ошибках

Выбранный диапазон

Имя файла E:\РАЗДАЧИ\Roy Buchanan - Live At Rockpalast (1985)\Roy Buchanan - Live At Rockpalast.wav

Пиковый уровень 100.0 % Качество диапазона 100.0 % CRC теста 2EFA8003 CRC копии 2EFA8003 Копирование... OK

Ошибок не произошло

AccurateRip: сводка

Трек 1 нет в базе данныхТрек 2 нет в базе данныхТрек 3 нет в базе данныхТрек 4 нет в базе данныхТрек 5 нет в базе данныхТрек 6 нет в базе данныхТрек 7 нет в базе данныхТрек 8 нет в базе данныхТрек 9 нет в базе данныхТрек 10 нет в базе данныхТрек 11 нет в базе данныхТрек 12 нет в базе данныхТрек 13 нет в базе данных

Ни одного трека нет в базе AccurateRip

Конец отчёта


Трекер:  [ 01-Фев-2012 18:12 ]

  

Скачать .torrent

Размер .torrent файла 18 KB


Размер: 440 MB
Хэш (hash) релиза: 1486e014e6283ce4b6a6a03c8f423819fc0f4733

Еще никто не оставлял запись к записи скачать торрент Roy Buchanan - Live At Rockpalast - 2011 . Будь первым!

!Обратная связь