Скачать через торрент музыку Billy Cox - Old School Blue Blues - 2011, APE бесплатно без регистрации torrent

Если у вас наблюдаются проблемы со скриншотами, переходом по ссылками, скачиванием торрентов - проблемы в блокировщике рекламы AdBlock. #хорошегоДня!


Статистика раздачи
Размер:  314 MB   |    Зарегистрирован:  5 лет 8 месяцев   |    .torrent скачан:  25 раз   |   
Раздают:  1  
   
Загрузка...
 
Автор Сообщение

Umakiro

avatar Umakiro


Billy Cox - Old School Blue Blues

Жанр: Blues-Rock
Год издания диска: 2011
Аудиокодек: APE (*.ape)
Тип рипа: image+.cue
Битрейт аудио: lossless
Продолжительность: 50:42
Источник (релизер): CD
Наличие сканов в содержимом раздачи: да
Треклист:
01. Rockin And Rollin On [0:04:04.97]
02. Old School Blue Blues [0:04:06.20]
03. I'mma Pilgrim [0:04:18.50]
04. Woke Up With That [0:04:57.33]
05. You Can't Tell [0:03:52.06]
06. The Last Gypsy Standing [0:03:25.77]
07. A Day Late And A Dollar Short [0:03:10.33]
08. A Special Kind Of Woman [0:03:32.80]
09. Train Stops Here [0:04:07.04]
10. Mamacita [0:04:35.89]
11. The Magic Of Dance [0:04:39.06]
12. Rockin And Rollin On - Part II [0:05:51.89]
 
Exact Audio Copy V0.99 prebeta 4 from 23. January 2008

Отчёт EAC об извлечении, выполненном 17. декабря 2011, 14:48

Billy Cox / Old School Blue Blues

Дисковод: Optiarc DVD RW AD-7173A Adapter: 0 ID: 1

Режим чтения : ДостоверностьИспользование точного потока : ДаОтключение кэша аудио : ДаИспользование указателей C2 : Нет

Коррекция смещения при чтении : 48Способность читать области Lead-in и Lead-out : НетЗаполнение пропущенных сэмплов тишиной : ДаУдаление блоков с тишиной в начале и конце : НетПри вычислениях CRC использовались нулевые сэмплы : ДаИнтерфейс : Встроенный Win32-интерфейс для Win NT/2000

Выходной формат : Внутренние WAV-операцииФормат сэмплов : 44.100 Гц; 16 бит; стерео

TOC извлечённого CD

Трек | Старт | Длительность | Начальный сектор | Конечный сектор --------------------------------------------------------------------- 1 | 0:00.00 | 4:04.73 | 0 | 18372 2 | 4:04.73 | 4:06.15 | 18373 | 36837 3 | 8:11.13 | 4:18.38 | 36838 | 56225 4 | 12:29.51 | 4:57.25 | 56226 | 78525 5 | 17:27.01 | 3:52.05 | 78526 | 95930 6 | 21:19.06 | 3:25.58 | 95931 | 111363 7 | 24:44.64 | 3:10.25 | 111364 | 125638 8 | 27:55.14 | 3:32.60 | 125639 | 141598 9 | 31:27.74 | 4:07.03 | 141599 | 160126 10 | 35:35.02 | 4:35.67 | 160127 | 180818 11 | 40:10.69 | 4:39.05 | 180819 | 201748 12 | 44:49.74 | 5:51.67 | 201749 | 228140

Характеристики диапазона извлечения и сообщения об ошибках

Выбранный диапазон

Имя файла E:\РАЗДАЧИ\Billy Cox - Old School Blue Blues\Billy Cox - Old School Blue Blues.wav

Пиковый уровень 97.7 % Качество диапазона 100.0 % CRC теста 418E0B44 CRC копии 418E0B44 Копирование... OK

Ошибок не произошло

AccurateRip: сводка

Трек 1 нет в базе данныхТрек 2 нет в базе данныхТрек 3 нет в базе данныхТрек 4 нет в базе данныхТрек 5 нет в базе данныхТрек 6 нет в базе данныхТрек 7 нет в базе данныхТрек 8 нет в базе данныхТрек 9 нет в базе данныхТрек 10 нет в базе данныхТрек 11 нет в базе данныхТрек 12 нет в базе данных

Ни одного трека нет в базе AccurateRip

Конец отчёта


Трекер:  [ 01-Фев-2012 18:11 ]

  

Скачать .torrent

Размер .torrent файла 13 KB


Размер: 314 MB
Хэш (hash) релиза: 497fdb504904e3642d229a84b2ce2fd478eba22c

Еще никто не оставлял запись к записи скачать торрент Billy Cox - Old School Blue Blues - 2011, APE . Будь первым!

!Обратная связь