Скачать через торрент музыку Keith Scott - Universal Blues - 2011, APE бесплатно без регистрации torrent

Если у вас наблюдаются проблемы со скриншотами, переходом по ссылками, скачиванием торрентов - проблемы в блокировщике рекламы AdBlock. #хорошегоДня!


Статистика раздачи
Размер:  250 MB   |    Зарегистрирован:  5 лет 8 месяцев   |    .torrent скачан:  28 раз   |   
Раздают:  1  
   
Загрузка...
 
Автор Сообщение

Umakiro

avatar Umakiro


Keith Scott - Universal Blues

Жанр: Electric Blues
Год издания диска: 2011
Аудиокодек: APE (*.ape)
Тип рипа: image+.cue
Битрейт аудио: lossless
Продолжительность: 34:01
Источник (релизер): CD
Наличие сканов в содержимом раздачи: да
Треклист:
01. No Mercy [0:02:44.10]
02. Down With Troubles [0:03:30.18]
03. Mean Mistreater [0:03:32.17]
04. Walking Alone [0:01:59.94]
05. Sitting Here Thinking [0:03:13.42]
06. Got to Have It [0:05:53.85]
07. Leaving Blues [0:02:36.98]
08. Georgia Blues [0:03:12.28]
09. Second Hand Man [0:03:14.88]
10. Living In My Own World [0:04:02.73]
 
Exact Audio Copy V0.99 prebeta 4 from 23. January 2008

Отчёт EAC об извлечении, выполненном 17. декабря 2011, 12:58

Keith Scott / Livin' in a Rich Man's World

Дисковод: Optiarc DVD RW AD-7173A Adapter: 0 ID: 1

Режим чтения : ДостоверностьИспользование точного потока : ДаОтключение кэша аудио : ДаИспользование указателей C2 : Нет

Коррекция смещения при чтении : 48Способность читать области Lead-in и Lead-out : НетЗаполнение пропущенных сэмплов тишиной : ДаУдаление блоков с тишиной в начале и конце : НетПри вычислениях CRC использовались нулевые сэмплы : ДаИнтерфейс : Встроенный Win32-интерфейс для Win NT/2000

Выходной формат : Внутренние WAV-операцииФормат сэмплов : 44.100 Гц; 16 бит; стерео

TOC извлечённого CD

Трек | Старт | Длительность | Начальный сектор | Конечный сектор --------------------------------------------------------------------- 1 | 0:00.00 | 2:44.08 | 0 | 12307 2 | 2:44.08 | 3:30.14 | 12308 | 28071 3 | 6:14.22 | 3:32.13 | 28072 | 43984 4 | 9:46.35 | 1:59.71 | 43985 | 52980 5 | 11:46.31 | 3:13.32 | 52981 | 67487 6 | 14:59.63 | 5:53.64 | 67488 | 94026 7 | 20:53.52 | 2:36.74 | 94027 | 105800 8 | 23:30.51 | 3:12.21 | 105801 | 120221 9 | 26:42.72 | 3:14.66 | 120222 | 134837 10 | 29:57.63 | 4:02.55 | 134838 | 153042

Характеристики диапазона извлечения и сообщения об ошибках

Выбранный диапазон

Имя файла E:\РАЗДАЧИ\Keith Scott - Universal Blues\Keith Scott - Livin' in a Rich Man's World.wav

Пиковый уровень 97.0 % Качество диапазона 99.9 % CRC теста 26F500BA CRC копии 26F500BA Копирование... OK

Ошибок не произошло

AccurateRip: сводка

Трек 1 нет в базе данныхТрек 2 нет в базе данныхТрек 3 нет в базе данныхТрек 4 нет в базе данныхТрек 5 нет в базе данныхТрек 6 нет в базе данныхТрек 7 нет в базе данныхТрек 8 нет в базе данныхТрек 9 нет в базе данныхТрек 10 нет в базе данных

Ни одного трека нет в базе AccurateRip

Конец отчёта


Трекер:  [ 01-Фев-2012 18:11 ]

  

Скачать .torrent

Размер .torrent файла 20 KB


Размер: 250 MB
Хэш (hash) релиза: 5e38cd08769c36a9f2d49a0802d77d4b5a215bb9

Еще никто не оставлял запись к записи скачать торрент Keith Scott - Universal Blues - 2011, APE . Будь первым!

!Обратная связь