Скачать через торрент музыку Nick Moss - Here I Am - 2011, APE бесплатно без регистрации torrent

Если у вас наблюдаются проблемы со скриншотами, переходом по ссылками, скачиванием торрентов - проблемы в блокировщике рекламы AdBlock. #хорошегоДня!


Статистика раздачи
Размер:  515 MB   |    Зарегистрирован:  5 лет 8 месяцев   |    .torrent скачан:  27 раз   |   
Раздают:  1  
   
Загрузка...
 
Автор Сообщение

Umakiro

avatar Umakiro


Nick Moss - Here I Am

Жанр: Blues-Rock
Год издания диска: 2011
Аудиокодек: APE (*.ape)
Тип рипа: image+.cue
Битрейт аудио: lossless
Продолжительность: 1:11:58
Источник (релизер): CD
Наличие сканов в содержимом раздачи: да
Треклист:
01. Why You So Mean? [0:07:43.13]
02. Blood Runs [0:04:55.29]
03. Here I Am [0:05:30.04]
04. Candy Nation [0:04:50.33]
05. It'll Turn Around [0:08:21.53]
06. Long Haul Jockey [0:04:37.29]
07. Here Comes Moses [0:06:33.70]
08. Caught By Surprise [0:09:43.76]
09. Katie Ann (Slight Return) [0:09:38.70]
10. Sunday Get Together [0:04:59.06]
11. It'll Turn Around (Radio Edit) [0:05:05.09]
 
Exact Audio Copy V0.99 prebeta 4 from 23. January 2008

Отчёт EAC об извлечении, выполненном 25. декабря 2011, 14:35

Nick Moss / Here I Am

Дисковод: Optiarc DVD RW AD-7173A Adapter: 0 ID: 1

Режим чтения : ДостоверностьИспользование точного потока : ДаОтключение кэша аудио : ДаИспользование указателей C2 : Нет

Коррекция смещения при чтении : 48Способность читать области Lead-in и Lead-out : НетЗаполнение пропущенных сэмплов тишиной : ДаУдаление блоков с тишиной в начале и конце : НетПри вычислениях CRC использовались нулевые сэмплы : ДаИнтерфейс : Встроенный Win32-интерфейс для Win NT/2000

Выходной формат : Внутренние WAV-операцииФормат сэмплов : 44.100 Гц; 16 бит; стерео

TOC извлечённого CD

Трек | Старт | Длительность | Начальный сектор | Конечный сектор --------------------------------------------------------------------- 1 | 0:00.00 | 7:43.10 | 0 | 34734 2 | 7:43.10 | 4:55.22 | 34735 | 56881 3 | 12:38.32 | 5:30.03 | 56882 | 81634 4 | 18:08.35 | 4:50.25 | 81635 | 103409 5 | 22:58.60 | 8:21.40 | 103410 | 141024 6 | 31:20.25 | 4:37.22 | 141025 | 161821 7 | 35:57.47 | 6:33.53 | 161822 | 191349 8 | 42:31.25 | 9:43.57 | 191350 | 235131 9 | 52:15.07 | 9:38.53 | 235132 | 278534 10 | 61:53.60 | 4:59.05 | 278535 | 300964 11 | 66:52.65 | 5:05.07 | 300965 | 323846

Характеристики диапазона извлечения и сообщения об ошибках

Выбранный диапазон

Имя файла E:\РАЗДАЧИ\Nick Moss – Here I Am\Nick Moss - Here I Am.wav

Пиковый уровень 99.4 % Качество диапазона 100.0 % CRC теста B4143543 CRC копии B4143543 Копирование... OK

Ошибок не произошло

AccurateRip: сводка

Трек 1 нет в базе данныхТрек 2 нет в базе данныхТрек 3 нет в базе данныхТрек 4 нет в базе данныхТрек 5 нет в базе данныхТрек 6 нет в базе данныхТрек 7 нет в базе данныхТрек 8 нет в базе данныхТрек 9 нет в базе данныхТрек 10 нет в базе данныхТрек 11 нет в базе данных

Ни одного трека нет в базе AccurateRip

Конец отчёта


Трекер:  [ 01-Фев-2012 18:11 ]

  

Скачать .torrent

Размер .torrent файла 11 KB


Размер: 515 MB
Хэш (hash) релиза: d83d212cfaff82bf41267f2cca490fb478b355fe

Еще никто не оставлял запись к записи скачать торрент Nick Moss - Here I Am - 2011, APE . Будь первым!

!Обратная связь