Скачать через торрент музыку John Mayall - Archives To Eighties featuring Eric Clapton & Mick Taylor - 1988, APE бесплатно без регистрации torrent

Если у вас наблюдаются проблемы со скриншотами, переходом по ссылками, скачиванием торрентов - проблемы в блокировщике рекламы AdBlock. #хорошегоДня!


Статистика раздачи
Размер:  400 MB   |    Зарегистрирован:  5 лет 8 месяцев   |    .torrent скачан:  27 раз   |   
Раздают:  1  
   
Загрузка...
 
Автор Сообщение

Umakiro

avatar Umakiro


John Mayall - Archives To Eighties
featuring Eric Clapton & Mick Taylor

Жанр: British Blues
Страна-производитель диска: Germany
Год издания диска: 1988
Издатель (лейбл): Polydor / PolyGram
Номер по каталогу: 837 127-2
Страна: UK
Аудиокодек: APE (*.ape)
Тип рипа: image+.cue
Битрейт аудио: lossless
Продолжительность: 1:06:50.33
Источник (релизер): собственный диск
Наличие сканов в содержимом раздачи: да
Треклист:
01. Accidental Suicide [0:06:24.33]
02. Force Of Nature [0:05:30.00]
03. Boogie Albert [0:02:16.82]
04. Television Eye [0:06:07.50]
05. Prisons On The Road [0:04:19.33]
06. Home Again [0:04:59.82]
07. Mr. Censor Man [0:04:44.50]
08. Looking At Tomorrow [0:06:58.00]
09. Blue Fox [0:03:43.00]
10. Devil's Tricks [0:07:41.82]
11. Marriage Madness [0:03:35.66]
12. Dream With Me [0:05:21.66]
13. My Children [0:05:07.84]
 
Exact Audio Copy V1.0 beta 3 from 29. August 2011

Отчёт EAC об извлечении, выполненном 2. января 2012, 19:08

John Mayall / Archives To Eighties

Дисковод: SONY CD-RW CRX230ED Adapter: 0 ID: 1

Режим чтения : ДостоверностьИспользование точного потока : ДаОтключение кэша аудио : ДаИспользование указателей C2 : Нет

Коррекция смещения при чтении : 6Способность читать области Lead-in и Lead-out : НетЗаполнение пропущенных сэмплов тишиной : ДаУдаление блоков с тишиной в начале и конце : НетПри вычислениях CRC использовались нулевые сэмплы : ДаИнтерфейс : Установленный внешний ASPI-интерфейс

Выходной формат : Внутренние WAV-операцииФормат сэмплов : 44.100 Гц; 16 бит; стерео

TOC извлечённого CD

Трек | Старт | Длительность | Начальный сектор | Конечный сектор --------------------------------------------------------------------- 1 | 0:00.33 | 6:24.25 | 33 | 28857 2 | 6:24.58 | 5:30.00 | 28858 | 53607 3 | 11:54.58 | 2:16.62 | 53608 | 63869 4 | 14:11.45 | 6:07.38 | 63870 | 91432 5 | 20:19.08 | 4:19.25 | 91433 | 110882 6 | 24:38.33 | 4:59.62 | 110883 | 133369 7 | 29:38.20 | 4:44.38 | 133370 | 154707 8 | 34:22.58 | 6:58.00 | 154708 | 186057 9 | 41:20.58 | 3:43.00 | 186058 | 202782 10 | 45:03.58 | 7:41.62 | 202783 | 237419 11 | 52:45.45 | 3:35.50 | 237420 | 253594 12 | 56:21.20 | 5:21.50 | 253595 | 277719 13 | 61:42.70 | 5:07.63 | 277720 | 300807

Характеристики диапазона извлечения и сообщения об ошибках

Выбранный диапазон

Имя файла E:\MusicCD\Torrent\John Mayall - Archives To Eighties\John Mayall - Archives To Eighties.wav

Пиковый уровень 97.7 % Скорость извлечения 8.9 X Качество диапазона 100.0 % CRC теста 7DCC4265 CRC копии 7DCC4265 Копирование... OK

Ошибок не произошло

AccurateRip: сводка

Трек 1 : извлечено точно (доверие 3) [54C55110] (AR v2)Трек 2 : извлечено точно (доверие 3) [B2D74210] (AR v2)Трек 3 : извлечено точно (доверие 3) [B808AF58] (AR v2)Трек 4 : извлечено точно (доверие 3) [CFFA947F] (AR v2)Трек 5 : извлечено точно (доверие 3) [663E4C22] (AR v2)Трек 6 : извлечено точно (доверие 3) [6C3344A6] (AR v2)Трек 7 : извлечено точно (доверие 3) [14901725] (AR v2)Трек 8 : извлечено точно (доверие 3) [CAE80891] (AR v2)Трек 9 : извлечено точно (доверие 3) [BDDEC4D2] (AR v2)Трек 10 : извлечено точно (доверие 3) [90EDEA57] (AR v2)Трек 11 : извлечено точно (доверие 3) [1971F185] (AR v2)Трек 12 : извлечено точно (доверие 3) [49E0DA3B] (AR v2)Трек 13 : извлечено точно (доверие 2) [9BBF11FF] (AR v2)

Все треки извлечены точно

Конец отчёта

==== Контрольная сумма отчёта 4703BF706C2AC91A6A0F28FD8B695F25529DF8554C09F609CB80DBCD3AA7BCD3 ====
 
REM GENRE BluesREM DATE 1988REM DISCID AE0FAA0DREM COMMENT "ExactAudioCopy v1.0b3"PERFORMER "John Mayall"TITLE "Archives To Eighties"FILE "John Mayall - Archives To Eighties.ape" WAVE TRACK 01 AUDIO TITLE "Accidental Suicide" PERFORMER "John Mayall" INDEX 00 00:00:00 INDEX 01 00:00:33 TRACK 02 AUDIO TITLE "Force Of Nature" PERFORMER "John Mayall" INDEX 00 06:22:70 INDEX 01 06:24:58 TRACK 03 AUDIO TITLE "Boogie Albert" PERFORMER "John Mayall" INDEX 00 11:52:08 INDEX 01 11:54:58 TRACK 04 AUDIO TITLE "Television Eye" PERFORMER "John Mayall" INDEX 00 14:08:70 INDEX 01 14:11:45 TRACK 05 AUDIO TITLE "Prisons On The Road" PERFORMER "John Mayall" INDEX 00 20:15:58 INDEX 01 20:19:08 TRACK 06 AUDIO TITLE "Home Again" PERFORMER "John Mayall" INDEX 00 24:36:33 INDEX 01 24:38:33 TRACK 07 AUDIO TITLE "Mr. Censor Man" PERFORMER "John Mayall" INDEX 00 29:35:45 INDEX 01 29:38:20 TRACK 08 AUDIO TITLE "Looking At Tomorrow" PERFORMER "John Mayall" INDEX 00 34:19:70 INDEX 01 34:22:58 TRACK 09 AUDIO TITLE "Blue Fox" PERFORMER "John Mayall" INDEX 00 41:17:08 INDEX 01 41:20:58 TRACK 10 AUDIO TITLE "Devil's Tricks" PERFORMER "John Mayall" INDEX 00 45:01:33 INDEX 01 45:03:58 TRACK 11 AUDIO TITLE "Marriage Madness" PERFORMER "John Mayall" INDEX 00 52:43:08 INDEX 01 52:45:45 TRACK 12 AUDIO TITLE "Dream With Me" PERFORMER "John Mayall" INDEX 00 56:19:08 INDEX 01 56:21:20 TRACK 13 AUDIO TITLE "My Children" PERFORMER "John Mayall" INDEX 00 61:40:45 INDEX 01 61:42:70
Рип с фирменного диска из моей коллекции.
Сканы на 600 dpi в комплекте.
Исключительно в целях ознакомления!
http://www.blues.ru/bluesmen/John_Mayall/

Спасибо сайту Blues.ru за предоставленную информацию!


Трекер:  [ 01-Фев-2012 18:10 ]

  

Скачать .torrent

Размер .torrent файла 16 KB


Размер: 400 MB
Хэш (hash) релиза: 8046846dfd9d5faa07f9b7cadbe6de459d33a939

Еще никто не оставлял запись к записи скачать торрент John Mayall - Archives To Eighties featuring Eric Clapton & Mick Taylor - 1988, APE . Будь первым!

!Обратная связь