Скачать через торрент музыку Dan Patlansky - Move my Soul - 2009, бесплатно без регистрации torrent

Если у вас наблюдаются проблемы со скриншотами, переходом по ссылками, скачиванием торрентов - проблемы в блокировщике рекламы AdBlock. #хорошегоДня!


Статистика раздачи
Размер:  432 MB   |    Зарегистрирован:  5 лет 8 месяцев   |    .torrent скачан:  46 раз   |   
Раздают:  1  
   
Загрузка...
 
Автор Сообщение

Umakiro

avatar Umakiro


Dan Patlansky - Move my Soul

Жанр: Modern Electric Blues
Год издания диска: 2009
Аудиокодек: APE (*.ape)
Тип рипа: image+.cue
Битрейт аудио: lossless
Продолжительность: 1:10:14
Источник (релизер): СD
Наличие сканов в содержимом раздачи: да
Треклист:
01. Jump on [0:05:52.34]
02. Why? [0:05:49.62]
03. Big things going down [0:09:40.45]
04. Insufficient man [0:04:55.68]
05. Peace of Eden II [0:03:53.98]
06. Move my soul [0:06:01.34]
07. You upset me [0:04:05.33]
08. Come & play [0:04:08.02]
09. Luka [0:11:22.78]
10. Lord you are beautiful [0:00:56.74]
11. That's allright mama [0:02:35.34]
12. Backside of Paradise [0:04:27.10]
13. Namaste\Love City [0:06:25.06]
Exact Audio Copy V0.99 prebeta 4 from 23. January 2008

Отчёт EAC об извлечении, выполненном 31. января 2012, 13:37

Dan Patlansky / Move my Soul

Дисковод: Optiarc DVD RW AD-7173A Adapter: 0 ID: 1

Режим чтения : Достоверность
Использование точного потока : Да
Отключение кэша аудио : Да
Использование указателей C2 : Нет

Коррекция смещения при чтении : 48
Способность читать области Lead-in и Lead-out : Нет
Заполнение пропущенных сэмплов тишиной : Да
Удаление блоков с тишиной в начале и конце : Нет
При вычислениях CRC использовались нулевые сэмплы : Да
Интерфейс : Встроенный Win32-интерфейс для Win NT/2000

Выходной формат : Внутренние WAV-операции
Формат сэмплов : 44.100 Гц; 16 бит; стерео

TOC извлечённого CD

Трек | Старт | Длительность | Начальный сектор | Конечный сектор
---------------------------------------------------------------------
1 | 0:00.00 | 5:52.26 | 0 | 26425
2 | 5:52.26 | 5:49.47 | 26426 | 52647
3 | 11:41.73 | 9:40.34 | 52648 | 96181
4 | 21:22.32 | 4:55.51 | 96182 | 118357
5 | 26:18.08 | 3:53.74 | 118358 | 135906
6 | 30:12.07 | 6:01.26 | 135907 | 163007
7 | 36:13.33 | 4:05.25 | 163008 | 181407
8 | 40:18.58 | 4:08.02 | 181408 | 200009
9 | 44:26.60 | 11:22.59 | 200010 | 251218
10 | 55:49.44 | 0:56.56 | 251219 | 255474
11 | 56:46.25 | 2:35.26 | 255475 | 267125
12 | 59:21.51 | 4:27.08 | 267126 | 287158
13 | 63:48.59 | 6:25.05 | 287159 | 316038

Характеристики диапазона извлечения и сообщения об ошибках

Выбранный диапазон

Имя файла E:\РАЗДАЧИ\Новая папка\Dan Patlansky - Move my Soul.wav

Пиковый уровень 94.4 %
Качество диапазона 99.9 %
CRC теста DA9EA8CA
CRC копии DA9EA8CA
Копирование... OK

Ошибок не произошло

AccurateRip: сводка

Трек 1 нет в базе данных
Трек 2 нет в базе данных
Трек 3 нет в базе данных
Трек 4 нет в базе данных
Трек 5 нет в базе данных
Трек 6 нет в базе данных
Трек 7 нет в базе данных
Трек 8 нет в базе данных
Трек 9 нет в базе данных
Трек 10 нет в базе данных
Трек 11 нет в базе данных
Трек 12 нет в базе данных
Трек 13 нет в базе данных

Ни одного трека нет в базе AccurateRip

Конец отчёта


Трекер:  [ 01-Фев-2012 18:09 ]

  

Скачать .torrent

Размер .torrent файла 17 KB


Размер: 432 MB
Хэш (hash) релиза: cdb66ea08a072a06740d4ee75666f3f166e7c193

Еще никто не оставлял запись к записи скачать торрент Dan Patlansky - Move my Soul - 2009, . Будь первым!

!Обратная связь