Скачать через торрент музыку Chris Rea - On The Beach - 1986 бесплатно без регистрации torrent

Если у вас наблюдаются проблемы со скриншотами, переходом по ссылками, скачиванием торрентов - проблемы в блокировщике рекламы AdBlock. #хорошегоДня!


Статистика раздачи
Размер:  333 MB   |    Зарегистрирован:  5 лет 8 месяцев   |    .torrent скачан:  44 раза   |   
Раздают:  1  
   
Загрузка...
 
Автор Сообщение

Umakiro

avatar Umakiro


Chris Rea - On The Beach

Жанр: Blues/Rock
Страна-производитель диска: Japan
Год издания диска: 1986
Издатель (лейбл): EastWest
Номер по каталогу: AMCE-3020
Страна: UK
Аудиокодек: FLAC (*.flac)
Тип рипа: image+.cue
Битрейт аудио: lossless
Продолжительность: 59:58
Источник (релизер): Stripakulina
Наличие сканов в содержимом раздачи: нет, только скан диска и код матрицы.

Треклист:
01. On The Beach (5:05)
02. Little Blonde Plaits (4:20)
03. Giverny (5:40)
04. Lucky Day (3:57)
05. Just Passing Through (5:21)
06. It's All Gone (7:28)
07. Hello Friend (4:20)
08. Two Roads (3:44)
09. Light Of Hope (4:34)
10. Auf Immer Und Ewig (4:12)
11. Freeway (4:14)
12. Bless Them All (2:30)
13. Crack That Mould (4:34)
 
Exact Audio Copy V1.0 beta 2 from 29. April 2011

Отчёт EAC об извлечении, выполненном 18. сентября 2011, 1:51

Chris Rea / On The Beach (AMCE-3020)

Дисковод: PLEXTOR CD-R PREMIUM2 Adapter: 0 ID: 0

Режим чтения : ДостоверностьИспользование точного потока : ДаОтключение кэша аудио : ДаИспользование указателей C2 : Нет

Коррекция смещения при чтении : 30Способность читать области Lead-in и Lead-out : ДаЗаполнение пропущенных сэмплов тишиной : ДаУдаление блоков с тишиной в начале и конце : НетПри вычислениях CRC использовались нулевые сэмплы : ДаИнтерфейс : Встроенный Win32-интерфейс для Win NT/2000

Выходной формат : Внутренние WAV-операцииФормат сэмплов : 44.100 Гц; 16 бит; стерео

TOC извлечённого CD

Трек | Старт | Длительность | Начальный сектор | Конечный сектор --------------------------------------------------------------------- 1 | 0:00.00 | 5:04.70 | 0 | 22869 2 | 5:04.70 | 4:19.67 | 22870 | 42361 3 | 9:24.62 | 5:39.60 | 42362 | 67846 4 | 15:04.47 | 3:57.28 | 67847 | 85649 5 | 19:02.00 | 5:20.62 | 85650 | 109711 6 | 24:22.62 | 7:28.23 | 109712 | 143334 7 | 31:51.10 | 4:19.60 | 143335 | 162819 8 | 36:10.70 | 3:44.00 | 162820 | 179619 9 | 39:54.70 | 4:34.10 | 179620 | 200179 10 | 44:29.05 | 4:11.47 | 200180 | 219051 11 | 48:40.52 | 4:13.65 | 219052 | 238091 12 | 52:54.42 | 2:30.15 | 238092 | 249356 13 | 55:24.57 | 4:34.00 | 249357 | 269906

Характеристики диапазона извлечения и сообщения об ошибках

Выбранный диапазон

Имя файла F:\For http://рутраскер\Chris Rea - On The Beach (East West Japan AMCE-3020) - 1986\Chris Rea - On The Beach (AMCE-3020).wav

Пиковый уровень 97.9 % Скорость извлечения 5.7 X Качество диапазона 99.9 % CRC теста AE15C741 CRC копии AE15C741 Копирование... OK

Ошибок не произошло

AccurateRip: сводка

Трек 1 : извлечено точно (доверие 2) [63B74535] (AR v1)Трек 2 : извлечено точно (доверие 2) [CF1AC0D3] (AR v1)Трек 3 : извлечено точно (доверие 2) [1CEFCA00] (AR v1)Трек 4 : извлечено точно (доверие 2) [EB86F21A] (AR v1)Трек 5 : извлечено точно (доверие 2) [7760B941] (AR v1)Трек 6 : извлечено точно (доверие 2) [D1C5356A] (AR v1)Трек 7 : извлечено точно (доверие 2) [A7D07456] (AR v1)Трек 8 : извлечено точно (доверие 2) [0EFBC762] (AR v1)Трек 9 : извлечено точно (доверие 2) [3339718E] (AR v1)Трек 10 : извлечено точно (доверие 2) [B029A375] (AR v1)Трек 11 : извлечено точно (доверие 2) [52660F72] (AR v1)Трек 12 : извлечено точно (доверие 2) [5D4AF059] (AR v1)Трек 13 : извлечено точно (доверие 2) [38F91037] (AR v1)

Все треки извлечены точно

Конец отчёта

==== Контрольная сумма отчёта 91164AC1E3264DCFE8BBC79A277AB97D6CBBE2AA3BCFA333DBAF55B919754392 ====
 
----------------------------------------------- Statistics for: Chris Rea - On The Beach (AMCE-3020).wav Number of Samples: 158705316-----------------------------------------------

left right

Peak value: -0.19 dB --- -0.18 dB Avg RMS: -18.75 dB --- -18.80 dB DR channel: 16.00 dB --- 16.00 dB-----------------------------------------------

Official DR value: DR16===============================================
81,4 73,8 81,6 79,6 70,3 97,9 81,1 97,6 70,3 95,8 72,5 71,0 97,8


Трекер:  [ 01-Фев-2012 18:08 ]

  

Скачать .torrent

Размер .torrent файла 14 KB


Размер: 333 MB
Хэш (hash) релиза: c2050f7d05890621a6ec1d9e0b69c3080757aa78

Еще никто не оставлял запись к записи скачать торрент Chris Rea - On The Beach - 1986 . Будь первым!

!Обратная связь