Скачать через торрент музыку Jimmy Ponder - Jump - 1989, FLAC бесплатно без регистрации torrent

Если у вас наблюдаются проблемы со скриншотами, переходом по ссылками, скачиванием торрентов - проблемы в блокировщике рекламы AdBlock. #хорошегоДня!


Статистика раздачи
Размер:  247 MB   |    Зарегистрирован:  5 лет 8 месяцев   |    .torrent скачан:  27 раз   |   
Раздают:  1  
   
Загрузка...
 
Автор Сообщение

Umakiro

avatar Umakiro


Jimmy Ponder - Jump

Жанр: Hard Bop, Soul Jazz, Guitar Jazz
Страна-производитель диска: USA
Год издания диска: 1989
Издатель (лейбл): Muse
Номер по каталогу: MCD 5347
Страна: US Pittsburgh, PA
Аудиокодек: FLAC (*.flac)
Тип рипа: tracks+.cue
Битрейт аудио: lossless
Продолжительность: 00:42:47
Источник (релизер): сеть
Наличие сканов в содержимом раздачи: да
01. I'll Always Be There [05:00]
02. You Stepped Out Of A Dream [05:35]
03. Blues For Betty [04:02]
04. When Love Comes My Way [05:33]
05. My Romance [04:23]
06. Stormy Monday Blues [05:42]
07. Jump [06:02]
08. In A Mellow Tone [06:26]
 
Exact Audio Copy V1.0 beta 1 from 15. November 2010

EAC extraction logfile from 19. May 2011, 19:39

Jimmy Ponder / Jump

Used drive : TSSTcorpCDDVDW SH-S203N Adapter: 0 ID: 2

Read mode : SecureUtilize accurate stream : YesDefeat audio cache : YesMake use of C2 pointers : No

Read offset correction : 6Overread into Lead-In and Lead-Out : NoFill up missing offset samples with silence : YesDelete leading and trailing silent blocks : NoNull samples used in CRC calculations : YesUsed interface : Installed external ASPI interfaceGap handling : Appended to previous track

Used output format : User Defined EncoderSelected bitrate : 768 kBit/sQuality : HighAdd ID3 tag : NoCommand line compressor : C:\Program Files\Exact Audio Copy-NEW\Flac\flac.exeAdditional command line options : -8 -V -T "ARTIST=%a" -T "TITLE=%t" -T "ALBUM=%g" -T "DATE=%y" -T "TRACKNUMBER=%n" -T "TOTALTRACKS=%x" -T "GENRE=%m" -T "ALBUMARTIST=%v" -T "ALBUM ARTIST=%v" -T "COMMENT=EAC V1.01b1, Secure Mode, Test & Copy, AccurateRip, FL

TOC of the extracted CD

Track | Start | Length | Start sector | End sector --------------------------------------------------------- 1 | 0:00.00 | 5:05.15 | 0 | 22889 2 | 5:05.15 | 5:40.17 | 22890 | 48406 3 | 10:45.32 | 4:05.50 | 48407 | 66831 4 | 14:51.07 | 5:37.70 | 66832 | 92176 5 | 20:29.02 | 4:27.50 | 92177 | 112251 6 | 24:56.52 | 5:47.05 | 112252 | 138281 7 | 30:43.57 | 6:06.70 | 138282 | 165801 8 | 36:50.52 | 6:26.30 | 165802 | 194781

Track 1

Filename J:\New Rips\Jimmy Ponder - Jump (1989) [FLAC]\01 - I'll Always Be There.wav

Pre-gap length 0:00:02.00

Peak level 95.8 % Extraction speed 4.6 X Track quality 100.0 % Test CRC 6765C727 Copy CRC 6765C727 Cannot be verified as accurate (confidence 1) [3AC39004], AccurateRip returned [87C096B8] Copy OK

Track 2

Filename J:\New Rips\Jimmy Ponder - Jump (1989) [FLAC]\02 - You Stepped Out Of A Dream.wav

Pre-gap length 0:00:04.65

Peak level 96.2 % Extraction speed 5.4 X Track quality 100.0 % Test CRC 22B8B520 Copy CRC 22B8B520 Accurately ripped (confidence 1) [531A2681] Copy OK

Track 3

Filename J:\New Rips\Jimmy Ponder - Jump (1989) [FLAC]\03 - Blues For Betty.wav

Pre-gap length 0:00:04.55

Peak level 99.9 % Extraction speed 5.6 X Track quality 100.0 % Test CRC 832579F1 Copy CRC 832579F1 Accurately ripped (confidence 1) [09F069F3] Copy OK

Track 4

Filename J:\New Rips\Jimmy Ponder - Jump (1989) [FLAC]\04 - When Love Comes My Way.wav

Pre-gap length 0:00:03.35

Peak level 70.6 % Extraction speed 6.3 X Track quality 100.0 % Test CRC 2D140E6D Copy CRC 2D140E6D Accurately ripped (confidence 1) [C9A627C2] Copy OK

Track 5

Filename J:\New Rips\Jimmy Ponder - Jump (1989) [FLAC]\05 - My Romance.wav

Pre-gap length 0:00:04.00

Peak level 83.4 % Extraction speed 6.5 X Track quality 100.0 % Test CRC 2E43EE28 Copy CRC 2E43EE28 Accurately ripped (confidence 1) [A2DE8CA1] Copy OK

Track 6

Filename J:\New Rips\Jimmy Ponder - Jump (1989) [FLAC]\06 - Stormy Monday Blues.wav

Pre-gap length 0:00:03.70

Peak level 95.3 % Extraction speed 7.2 X Track quality 100.0 % Test CRC A1828986 Copy CRC A1828986 Accurately ripped (confidence 1) [D2027689] Copy OK

Track 7

Filename J:\New Rips\Jimmy Ponder - Jump (1989) [FLAC]\07 - Jump.wav

Pre-gap length 0:00:04.25

Peak level 89.0 % Extraction speed 6.6 X Track quality 99.9 % Test CRC B4E256E8 Copy CRC B4E256E8 Cannot be verified as accurate (confidence 1) [A6594F1F], AccurateRip returned [69DEC42D] Copy OK

Track 8

Filename J:\New Rips\Jimmy Ponder - Jump (1989) [FLAC]\08 - In A Mellow Tone.wav

Pre-gap length 0:00:04.55

Peak level 88.5 % Extraction speed 8.1 X Track quality 100.0 % Test CRC DD8389B2 Copy CRC DD8389B2 Accurately ripped (confidence 1) [9E6F0504] Copy OK

6 track(s) accurately ripped 2 track(s) could not be verified as accurate

Some tracks could not be verified as accurate

No errors occurred

End of status report

==== Log checksum 80257D3B7B9E5078E857F91EBEF5411308F4D58F09ECBC75133FD64B34AD1D81 ====
 
REM GENRE "Jazz (Soul)"REM DATE 1989REM DISCID 670A2508REM COMMENT "ExactAudioCopy v1.0b1"PERFORMER "Jimmy Ponder"TITLE "Jump"FILE "01 - I'll Always Be There.flac" WAVE TRACK 01 AUDIO TITLE "I'll Always Be There" PERFORMER "Jimmy Ponder" INDEX 01 00:00:00 TRACK 02 AUDIO TITLE "You Stepped Out Of A Dream" PERFORMER "Jimmy Ponder" INDEX 00 05:00:25FILE "02 - You Stepped Out Of A Dream.flac" WAVE INDEX 01 00:00:00 TRACK 03 AUDIO TITLE "Blues For Betty" PERFORMER "Jimmy Ponder" INDEX 00 05:35:37FILE "03 - Blues For Betty.flac" WAVE INDEX 01 00:00:00 TRACK 04 AUDIO TITLE "When Love Comes My Way" PERFORMER "Jimmy Ponder" INDEX 00 04:02:15FILE "04 - When Love Comes My Way.flac" WAVE INDEX 01 00:00:00 TRACK 05 AUDIO TITLE "My Romance" PERFORMER "Jimmy Ponder" INDEX 00 05:33:70FILE "05 - My Romance.flac" WAVE INDEX 01 00:00:00 TRACK 06 AUDIO TITLE "Stormy Monday Blues" PERFORMER "Jimmy Ponder" INDEX 00 04:23:55FILE "06 - Stormy Monday Blues.flac" WAVE INDEX 01 00:00:00 TRACK 07 AUDIO TITLE "Jump" PERFORMER "Jimmy Ponder" INDEX 00 05:42:55FILE "07 - Jump.flac" WAVE INDEX 01 00:00:00 TRACK 08 AUDIO TITLE "In A Mellow Tone" PERFORMER "Jimmy Ponder" INDEX 00 06:02:15FILE "08 - In A Mellow Tone.flac" WAVE INDEX 01 00:00:00
 
-----------------------

DON'T MODIFY THIS FILE

-----------------------

PERFORMER: auCDtect Task Manager, ver. 1.5.1RC6 build 1.5.1.7Copyright (c) 2008-2010 y-soft. All rights reservedhttp://y-soft.org

ANALYZER: auCDtect: CD records authenticity detector, version 0.8.2Copyright (c) 2004 Oleg Berngardt. All rights reserved.Copyright (c) 2004 Alexander Djourik. All rights reserved.

FILE: 08 - In A Mellow Tone.flac Size: 34303707 Hash: 90D816F8B0EBEAC796A0B463902BB026 Accuracy: -m0 Conclusion: CDDA 100% Signature: 6EA4A89E1E511F055EE72E168A0B6441D4CBD803FILE: 07 - Jump.flac Size: 38797754 Hash: E3B03EFC67A8B7613665BD55B5E1374E Accuracy: -m0 Conclusion: CDDA 100% Signature: EC656DD3F5D3F77357B812A0E7EA9FE7AF48DDC8FILE: 06 - Stormy Monday Blues.flac Size: 29359739 Hash: 1A380E4C11B57682CF72538A7AFD592C Accuracy: -m0 Conclusion: CDDA 100% Signature: 51A55F6BB1E86405084763EB11448AFB315D798CFILE: 05 - My Romance.flac Size: 29553810 Hash: 46FAD996809D2C1F59E7D35718A413B5 Accuracy: -m0 Conclusion: CDDA 100% Signature: DC8026D5243C4692F4381A24331A0AEB3A75E4D8FILE: 04 - When Love Comes My Way.flac Size: 25935605 Hash: 44FB93B9B9843A5AE419C1953A19AB82 Accuracy: -m0 Conclusion: CDDA 100% Signature: 6552FC1C42AAD63C92B2DD631333B78AA62854B6FILE: 03 - Blues For Betty.flac Size: 28857727 Hash: ED31BF5A970BEDF7DC20FF3CEA3F3C46 Accuracy: -m0 Conclusion: CDDA 100% Signature: 489A6CBB4680AAF5A2B3BB6C5119222AA747B025FILE: 02 - You Stepped Out Of A Dream.flac Size: 37357920 Hash: 7A68B610AFD92668792036772C0D22AA Accuracy: -m0 Conclusion: CDDA 100% Signature: 1100C9E5BF2278603B47D61C0ACD563C04F9C0D3FILE: 01 - I'll Always Be There.flac Size: 32358022 Hash: 7BE5531E85B9FD5378EFB426666A10F8 Accuracy: -m0 Conclusion: CDDA 100% Signature: 0252E25E9A11EE31755746A064C3F277A7670590
Jimmy Ponder (guitar, vocal)
James Anderson (tenor saxophone)
John Patton (organ)
Geary Moore (guitar)
Eddie Gladden (drums)
Lawrence Killian (percussion)


Трекер:  [ 29-Янв-2012 17:03 ]

  

Скачать .torrent

Размер .torrent файла 21 KB


Размер: 247 MB
Хэш (hash) релиза: 95f1b01424320befc77a2f56bf048103610badb9

Еще никто не оставлял запись к записи скачать торрент Jimmy Ponder - Jump - 1989, FLAC . Будь первым!

!Обратная связь