Скачать через торрент музыку Pat Martino - Well Be Together Again - бесплатно без регистрации torrent

Если у вас наблюдаются проблемы со скриншотами, переходом по ссылками, скачиванием торрентов - проблемы в блокировщике рекламы AdBlock. #хорошегоДня!


Статистика раздачи
Размер:  153 MB   |    Зарегистрирован:  5 лет 8 месяцев   |    .torrent скачан:  30 раз   |   
Раздают:  1  
   
Загрузка...
 
Автор Сообщение

Umakiro

avatar Umakiro


Pat Martino / We'll Be Together Again

Жанр: Post-Bop
Страна-производитель диска: USA
Год издания диска: (1976) - 1998
Издатель (лейбл): 32 Jazz
Номер по каталогу: 32071
Страна: US Philadelphia, PA
Аудиокодек: FLAC (*.flac)
Тип рипа: tracks+.cue
Битрейт аудио: lossless
Продолжительность: 00:43:50
Источник (релизер): obelix
Наличие сканов в содержимом раздачи: да
Треклист:
01. Open Rode (Olee/Variations and Song/Open Road) [15:54]
02. Lament [04:58]
03. We'll Be Together Again [05:03]
04. You Don't Know What Love Is [04:44]
05. Dreamsville [04:59]
06. Send In The Clowns [02:44]
07. Willow Weep For Me [05:25]
 
Exact Audio Copy V0.99 prebeta 5 from 4. May 2009

EAC extraction logfile from 7. March 2011, 16:24

Pat Martino / We'll Be Together Again

Used drive : PHILIPS SPD2519T Adapter: 1 ID: 0

Read mode : SecureUtilize accurate stream : YesDefeat audio cache : YesMake use of C2 pointers : No

Read offset correction : 6Overread into Lead-In and Lead-Out : NoFill up missing offset samples with silence : YesDelete leading and trailing silent blocks : NoNull samples used in CRC calculations : YesUsed interface : Installed external ASPI interfaceGap handling : Appended to previous track

Used output format : User Defined EncoderSelected bitrate : 1024 kBit/sQuality : HighAdd ID3 tag : NoCommand line compressor : C:\Program Files\FLAC\flac.exeAdditional command line options : -8 -V -T "ARTIST=%a" -T "TITLE=%t" -T "ALBUM=%g" -T "DATE=%y" -T "TRACKNUMBER=%n" -T "GENRE=%m" -T "COMMENT=EAC FLAC -8" %s

TOC of the extracted CD

Track | Start | Length | Start sector | End sector --------------------------------------------------------- 1 | 0:00.00 | 15:56.57 | 0 | 71756 2 | 15:56.57 | 5:01.08 | 71757 | 94339 3 | 20:57.65 | 5:05.62 | 94340 | 117276 4 | 26:03.52 | 4:46.73 | 117277 | 138799 5 | 30:50.50 | 5:01.37 | 138800 | 161411 6 | 35:52.12 | 2:46.35 | 161412 | 173896 7 | 38:38.47 | 5:25.00 | 173897 | 198271

Track 1

Filename I:\S320-New Rip\Pat Martino - We'll Be Together Again (1976)\01 - Open Rode (Olee,Variations and Song,Open Road).wav

Pre-gap length 0:00:02.00

Peak level 94.4 % Track quality 100.0 % Test CRC 5B824ABC Copy CRC 5B824ABC Accurately ripped (confidence 4) [55018BDD] Copy OK

Track 2

Filename I:\S320-New Rip\Pat Martino - We'll Be Together Again (1976)\02 - Lament.wav

Pre-gap length 0:00:02.22

Peak level 89.1 % Track quality 100.0 % Test CRC B5511EF0 Copy CRC B5511EF0 Accurately ripped (confidence 3) [CA39A1B7] Copy OK

Track 3

Filename I:\S320-New Rip\Pat Martino - We'll Be Together Again (1976)\03 - We'll Be Together Again.wav

Pre-gap length 0:00:02.30

Peak level 91.7 % Track quality 99.9 % Test CRC 93F76C06 Copy CRC 93F76C06 Accurately ripped (confidence 4) [7A31BE07] Copy OK

Track 4

Filename I:\S320-New Rip\Pat Martino - We'll Be Together Again (1976)\04 - You Don't Know What Love Is.wav

Pre-gap length 0:00:02.17

Peak level 90.1 % Track quality 100.0 % Test CRC 6E9FED87 Copy CRC 6E9FED87 Accurately ripped (confidence 4) [5AB97F6E] Copy OK

Track 5

Filename I:\S320-New Rip\Pat Martino - We'll Be Together Again (1976)\05 - Dreamsville.wav

Pre-gap length 0:00:02.15

Peak level 95.6 % Track quality 99.9 % Test CRC 134BB2E5 Copy CRC 134BB2E5 Accurately ripped (confidence 4) [107E3A56] Copy OK

Track 6

Filename I:\S320-New Rip\Pat Martino - We'll Be Together Again (1976)\06 - Send In The Clowns.wav

Pre-gap length 0:00:02.15

Peak level 79.9 % Track quality 100.0 % Test CRC B74F4EAD Copy CRC B74F4EAD Accurately ripped (confidence 4) [3725D8A7] Copy OK

Track 7

Filename I:\S320-New Rip\Pat Martino - We'll Be Together Again (1976)\07 - Willow Weep For Me.wav

Pre-gap length 0:00:02.12

Peak level 82.2 % Track quality 100.0 % Test CRC 87387919 Copy CRC 87387919 Accurately ripped (confidence 4) [F5D00FEB] Copy OK

All tracks accurately ripped

No errors occurred

End of status report
 
REM GENRE JazzREM DATE 1976REM DISCID 5D0A5307REM COMMENT "ExactAudioCopy v0.99pb5"PERFORMER "Pat Martino"TITLE "We'll Be Together Again"FILE "01 - Open Rode (Olee,Variations and Song,Open Road).flac" WAVE TRACK 01 AUDIO TITLE "Open Rode (Olee/Variations and Song/Open Road)" PERFORMER "Pat Martino" INDEX 01 00:00:00 TRACK 02 AUDIO TITLE "Lament" PERFORMER "Pat Martino" INDEX 00 15:54:35FILE "02 - Lament.flac" WAVE INDEX 01 00:00:00 TRACK 03 AUDIO TITLE "We'll Be Together Again" PERFORMER "Pat Martino" INDEX 00 04:58:53FILE "03 - We'll Be Together Again.flac" WAVE INDEX 01 00:00:00 TRACK 04 AUDIO TITLE "You Don't Know What Love Is" PERFORMER "Pat Martino" INDEX 00 05:03:45FILE "04 - You Don't Know What Love Is.flac" WAVE INDEX 01 00:00:00 TRACK 05 AUDIO TITLE "Dreamsville" PERFORMER "Pat Martino" INDEX 00 04:44:58FILE "05 - Dreamsville.flac" WAVE INDEX 01 00:00:00 TRACK 06 AUDIO TITLE "Send In The Clowns" PERFORMER "Pat Martino" INDEX 00 04:59:22FILE "06 - Send In The Clowns.flac" WAVE INDEX 01 00:00:00 TRACK 07 AUDIO TITLE "Willow Weep For Me" PERFORMER "Pat Martino" INDEX 00 02:44:23FILE "07 - Willow Weep For Me.flac" WAVE INDEX 01 00:00:00
 
-----------------------

DON'T MODIFY THIS FILE

-----------------------

PERFORMER: auCDtect Task Manager, ver. 1.5.1RC6 build 1.5.1.7Copyright (c) 2008-2010 y-soft. All rights reservedhttp://y-soft.org

ANALYZER: auCDtect: CD records authenticity detector, version 0.8.2Copyright (c) 2004 Oleg Berngardt. All rights reserved.Copyright (c) 2004 Alexander Djourik. All rights reserved.

FILE: 07 - Willow Weep For Me.flac Size: 18237794 Hash: 52E79DB1C1B2BCF44FAADCA6CA1BD0AE Accuracy: -m0 Conclusion: CDDA 100% Signature: 247643F7C6EB68CBDE7B02CCB599B32C5271B8E3FILE: 06 - Send In The Clowns.flac Size: 9920208 Hash: EEA797B1046A8546BE77E421F63FFF72 Accuracy: -m0 Conclusion: CDDA 100% Signature: 16E39717ECD1F8340275D53B94D8C55B392BD29BFILE: 05 - Dreamsville.flac Size: 17966580 Hash: 26447B7E2808E27E87705CB3B733F241 Accuracy: -m0 Conclusion: CDDA 100% Signature: B28444B8B98FDA009017C396F89B328FBD4C2BE5FILE: 04 - You Don't Know What Love Is.flac Size: 16730939 Hash: 074B250B77DAC8C08EF99BE3FC3A70CA Accuracy: -m0 Conclusion: CDDA 100% Signature: BCA483B247DFEF29BD2F70E4B2532DB5C1E5AEF3FILE: 03 - We'll Be Together Again.flac Size: 18485506 Hash: A762E1F40A9A162D0F323C8D0F4AF7AA Accuracy: -m0 Conclusion: CDDA 100% Signature: 6E11AAE997593C9F97671ED78A65FE7DC4BAB52AFILE: 02 - Lament.flac Size: 16646206 Hash: 607060167E54C1E78F8C9BF3EE7E0E9C Accuracy: -m0 Conclusion: CDDA 100% Signature: 220C44F85BB58A00BBFC54734C870118523DCED0FILE: 01 - Open Rode (Olee,Variations and Song,Open Road).flac Size: 56239451 Hash: EBED87D1599F2AF2A20AB0C251A9FBF2 Accuracy: -m0 Conclusion: CDDA 100% Signature: 20A5BD69FCB6DE8308609EC07CF866B39E10126D
Pat Martino (guitar);
Gil Goldstein (electric piano).


Трекер:  [ 29-Янв-2012 17:03 ]

  

Скачать .torrent

Размер .torrent файла 13 KB


Размер: 153 MB
Хэш (hash) релиза: edd7eac14aec0d0bf796d1ae30290c25c40d3825

Еще никто не оставлял запись к записи скачать торрент Pat Martino - Well Be Together Again - . Будь первым!

!Обратная связь