Скачать через торрент музыку Marcus Printup - UNveiled - 1996, FLAC бесплатно без регистрации torrent

Если у вас наблюдаются проблемы со скриншотами, переходом по ссылками, скачиванием торрентов - проблемы в блокировщике рекламы AdBlock. #хорошегоДня!


Статистика раздачи
Размер:  345 MB   |    Зарегистрирован:  5 лет 8 месяцев   |    .torrent скачан:  29 раз   |   
Раздают:  1  
   
Загрузка...
 
Автор Сообщение

Umakiro

avatar Umakiro


Marcus Printup / UNveiled

Жанр: Post-Bop, Straight-Ahead Jazz, Trumpet
Страна-производитель диска: USA
Год издания диска: 1996
Издатель (лейбл): Blue Note
Номер по каталогу: CDP 537302
Страна: US Convers, GA
Аудиокодек: FLAC (*.flac)
Тип рипа: tracks+.cue
Битрейт аудио: lossless
Продолжительность: 01:04:02
Источник (релизер): musicgate
Наличие сканов в содержимом раздачи: да
Треклист:
01. Eclipse [06:39]
02. When Forever Is Over [06:15]
03. Dig [05:54]
04. Say It Again [07:08]
05. Leave Your Name And Number [04:22]
06. Unveiled [06:41]
07. Stablemates [05:42]
08. Soulful [07:38]
09. M & M [03:56]
10. Yes Or No [07:03]
11. Amazing Grace [02:38]
 
EAC extraction logfile from 29. April 2008, 21:16 for CDMarcus Printup / UNveiled

Used drive : PIONEER DVD-RW DVR-112D Adapter: 0 ID: 0Read mode : Secure with NO C2, accurate stream, disable cacheRead offset correction : 48Overread into Lead-In and Lead-Out : No

Used output format : C:\Program Files\FLAC\flac.exe (User Defined Encoder) 320 kBit/s Additional command line options : -8 -V -T "ARTIST=%a" -T "TITLE=%t" -T "ALBUM=%g" -T "DATE=%y" -T "TRACKNUMBER=%n" -T "GENRE=%m" -T "COMMENT=EAC FLAC -8" %s

Other options : Fill up missing offset samples with silence : Yes Delete leading and trailing silent blocks : No Installed external ASPI interface

Track 1 Filename D:\music\rip\Marcus Printup - UNveiled (1996) [FLAC] {Blue Note}\01 - Eclipse.wav

Pre-gap length 0:00:02.42

Peak level 69.1 % Track quality 99.9 % Test CRC 9B7657C3 Copy CRC 9B7657C3 Copy OK

Track 2 Filename D:\music\rip\Marcus Printup - UNveiled (1996) [FLAC] {Blue Note}\02 - When Forever Is Over.wav

Pre-gap length 0:00:01.36

Peak level 51.5 % Track quality 100.0 % Test CRC FA3E4553 Copy CRC FA3E4553 Copy OK

Track 3 Filename D:\music\rip\Marcus Printup - UNveiled (1996) [FLAC] {Blue Note}\03 - Dig.wav

Pre-gap length 0:00:00.56

Peak level 69.4 % Track quality 100.0 % Test CRC 4513B1C7 Copy CRC 4513B1C7 Copy OK

Track 4 Filename D:\music\rip\Marcus Printup - UNveiled (1996) [FLAC] {Blue Note}\04 - Say It Again.wav

Pre-gap length 0:00:01.26

Peak level 68.3 % Track quality 100.0 % Test CRC 5EC6FA70 Copy CRC 5EC6FA70 Copy OK

Track 5 Filename D:\music\rip\Marcus Printup - UNveiled (1996) [FLAC] {Blue Note}\05 - Leave Your Name And Number.wav

Pre-gap length 0:00:00.56

Peak level 65.3 % Track quality 99.9 % Test CRC C760BFE9 Copy CRC C760BFE9 Copy OK

Track 6 Filename D:\music\rip\Marcus Printup - UNveiled (1996) [FLAC] {Blue Note}\06 - Unveiled.wav

Pre-gap length 0:00:00.42

Peak level 65.8 % Track quality 100.0 % Test CRC B6684026 Copy CRC B6684026 Copy OK

Track 7 Filename D:\music\rip\Marcus Printup - UNveiled (1996) [FLAC] {Blue Note}\07 - Stablemates.wav

Pre-gap length 0:00:01.66

Peak level 68.6 % Track quality 100.0 % Test CRC 67AD9334 Copy CRC 67AD9334 Copy OK

Track 8 Filename D:\music\rip\Marcus Printup - UNveiled (1996) [FLAC] {Blue Note}\08 - Soulful.wav

Pre-gap length 0:00:01.86

Peak level 62.1 % Track quality 100.0 % Test CRC 61A93D43 Copy CRC 61A93D43 Copy OK

Track 9 Filename D:\music\rip\Marcus Printup - UNveiled (1996) [FLAC] {Blue Note}\09 - M & M.wav

Pre-gap length 0:00:00.24

Peak level 58.6 % Track quality 100.0 % Test CRC BE113DDB Copy CRC BE113DDB Copy OK

Track 10 Filename D:\music\rip\Marcus Printup - UNveiled (1996) [FLAC] {Blue Note}\10 - Yes Or No.wav

Pre-gap length 0:00:01.26

Peak level 69.6 % Track quality 100.0 % Test CRC 983C5532 Copy CRC 983C5532 Copy OK

Track 11 Filename D:\music\rip\Marcus Printup - UNveiled (1996) [FLAC] {Blue Note}\11 - Amazing Grace.wav

Pre-gap length 0:00:01.13

Peak level 52.7 % Track quality 100.0 % Test CRC 77DBC202 Copy CRC 77DBC202 Copy OK

No errors occured

End of status report
 
REM GENRE JazzREM DATE 1996REM DISCID 970F0D0BREM COMMENT "ExactAudioCopy v0.95b4"PERFORMER "Marcus Printup"TITLE "UNveiled"FILE "01 - Eclipse.wav" WAVE TRACK 01 AUDIO TITLE "Eclipse" PERFORMER "Marcus Printup" PREGAP 00:00:32 INDEX 01 00:00:00 TRACK 02 AUDIO TITLE "When Forever Is Over" PERFORMER "Marcus Printup" INDEX 00 06:39:58FILE "02 - When Forever Is Over.wav" WAVE INDEX 01 00:00:00 TRACK 03 AUDIO TITLE "Dig" PERFORMER "Marcus Printup" INDEX 00 06:15:18FILE "03 - Dig.wav" WAVE INDEX 01 00:00:00 TRACK 04 AUDIO TITLE "Say It Again" PERFORMER "Marcus Printup" INDEX 00 05:54:63FILE "04 - Say It Again.wav" WAVE INDEX 01 00:00:00 TRACK 05 AUDIO TITLE "Leave Your Name And Number" PERFORMER "Marcus Printup" INDEX 00 07:08:55FILE "05 - Leave Your Name And Number.wav" WAVE INDEX 01 00:00:00 TRACK 06 AUDIO TITLE "Unveiled" PERFORMER "Marcus Printup" INDEX 00 04:22:68FILE "06 - Unveiled.wav" WAVE INDEX 01 00:00:00 TRACK 07 AUDIO TITLE "Stablemates" PERFORMER "Marcus Printup" INDEX 00 06:41:15FILE "07 - Stablemates.wav" WAVE INDEX 01 00:00:00 TRACK 08 AUDIO TITLE "Soulful" PERFORMER "Marcus Printup" INDEX 00 05:42:68FILE "08 - Soulful.wav" WAVE INDEX 01 00:00:00 TRACK 09 AUDIO TITLE "M & M" PERFORMER "Marcus Printup" INDEX 00 07:38:57FILE "09 - M & M.wav" WAVE INDEX 01 00:00:00 TRACK 10 AUDIO TITLE "Yes Or No" PERFORMER "Marcus Printup" INDEX 00 03:56:07FILE "10 - Yes Or No.wav" WAVE INDEX 01 00:00:00 TRACK 11 AUDIO TITLE "Amazing Grace" PERFORMER "Marcus Printup" INDEX 00 07:03:55FILE "11 - Amazing Grace.wav" WAVE INDEX 01 00:00:00
 
-----------------------

DON'T MODIFY THIS FILE

-----------------------

PERFORMER: auCDtect Task Manager, ver. 1.5.1RC6 build 1.5.1.7Copyright (c) 2008-2010 y-soft. All rights reservedhttp://y-soft.org

ANALYZER: auCDtect: CD records authenticity detector, version 0.8.2Copyright (c) 2004 Oleg Berngardt. All rights reserved.Copyright (c) 2004 Alexander Djourik. All rights reserved.

FILE: 11 - Amazing Grace.flac Size: 9787854 Hash: 8348C1B69541AAC951EDD84908E72F29 Accuracy: -m0 Conclusion: CDDA 100% Signature: 91D215C42A000D8483994F133EC1632D1D68B64FFILE: 10 - Yes Or No.flac Size: 44738338 Hash: E11DB4AF0ADB1D4D829B4AF1998E57D4 Accuracy: -m0 Conclusion: CDDA 100% Signature: F5C436A3D69E349B10C8D92739FDC357041D35F8FILE: 09 - M & M.flac Size: 15762317 Hash: 6A4B3D585F44AA4CC4B1D6E0C91616EB Accuracy: -m0 Conclusion: CDDA 100% Signature: 6CEB5808CEB0A6CD65153E4BF318B216083F8485FILE: 08 - Soulful.flac Size: 38429362 Hash: 27427259B179BC39B27C10D53B64B3DF Accuracy: -m0 Conclusion: CDDA 100% Signature: 66091B7AF0B569BC65C97AC2D1B610DC66FC50DBFILE: 07 - Stablemates.flac Size: 30548905 Hash: 7BC15F8648532FEE7DD37C0AF1B3F86C Accuracy: -m0 Conclusion: CDDA 100% Signature: D47FFBB8D601BE4B608D7C61678E51E4E3045AE9FILE: 06 - Unveiled.flac Size: 32002343 Hash: 8FFB2EAAF1E356665E37A69C05D0E8F8 Accuracy: -m0 Conclusion: CDDA 100% Signature: B9E3CE52E66F2ED0A0427EC67AD03545D3A882CBFILE: 05 - Leave Your Name And Number.flac Size: 22052530 Hash: C82601065C01F7576232F96D6B42D7D2 Accuracy: -m0 Conclusion: CDDA 99% Signature: 8F272CA269EF2C516D1D7599CF5B5E7057B7CD11FILE: 04 - Say It Again.flac Size: 40998912 Hash: 00A33849994B4DB124B49AC894708BC1 Accuracy: -m0 Conclusion: CDDA 100% Signature: D036B5C4C69FE707F5480BF1252DCE43D36E7EC6FILE: 03 - Dig.flac Size: 34962805 Hash: 48E6F473DD47A4CCABBC1A558DBFC69D Accuracy: -m0 Conclusion: CDDA 100% Signature: CBC1BD41DEA673D29D92C3A30389BFBF895BE01AFILE: 02 - When Forever Is Over.flac Size: 28321453 Hash: 4999F9B85A046F8A531C60F067B43612 Accuracy: -m0 Conclusion: CDDA 100% Signature: FF4320C5D1A5419E4B0270EE0FCC4E6E5DB90E27FILE: 01 - Eclipse.flac Size: 36523368 Hash: BF9A618E41BAFF9B122001AA393B8353 Accuracy: -m0 Conclusion: CDDA 100% Signature: 35BA0BC403F82D9076A655082CA69DC613799CB4
Marcus Printup, trumpet
Stephen Riley, tenor saxophone
Marcus Roberts, piano
Reuben Rogers, bass
Jason Marsalis, drums


Трекер:  [ 29-Янв-2012 17:02 ]

  

Скачать .torrent

Размер .torrent файла 15 KB


Размер: 345 MB
Хэш (hash) релиза: 014953816b23c313371d845eb86b240b54aee65a

Еще никто не оставлял запись к записи скачать торрент Marcus Printup - UNveiled - 1996, FLAC . Будь первым!

!Обратная связь