Скачать через торрент музыку Rob Wasserman - Solo - 1994, FLAC бесплатно без регистрации torrent

Если у вас наблюдаются проблемы со скриншотами, переходом по ссылками, скачиванием торрентов - проблемы в блокировщике рекламы AdBlock. #хорошегоДня!


Статистика раздачи
Размер:  127 MB   |    Зарегистрирован:  5 лет 8 месяцев   |    .torrent скачан:  31 раз   |   
Раздают:  1  
   
Загрузка...
 
Автор Сообщение

Umakiro

avatar Umakiro


Rob Wasserman / Solo

Жанр: Fusion, Neo-Bop
Год издания диска: 1994
Издатель (лейбл): Rounder Select
Номер по каталогу: 179
Страна: USA
Аудиокодек: FLAC (*.flac)
Тип рипа: tracks+.cue
Битрейт аудио: lossless
Продолжительность: 00:31:17
Источник (релизер): thashit
Наличие сканов в содержимом раздачи: нет
Треклист:
01. Thirteen [02:54]
02. Lima Twist [03:47]
03. Sunway [02:19]
04. Punk sizzle [01:45]
05. Clare [00:56]
06. Lady Be Good [02:05]
07. Strumming [01:54]
08. Bass Blue [02:24]
09. Bass Space [03:12]
10. April Aire [02:19]
11. Freedom Bass Dance [01:39]
12. Ode to Casals [03:56]
13. Sara's Rainbow Song [02:02]
 
Exact Audio Copy V0.99 prebeta 5 from 4. May 2009

EAC extraction logfile from 9. October 2009, 13:48

Rob Wasserman / Solo

Used drive : HL-DT-STDVDRAM GSA-H44N Adapter: 1 ID: 0

Read mode : SecureUtilize accurate stream : YesDefeat audio cache : YesMake use of C2 pointers : No

Read offset correction : 667Overread into Lead-In and Lead-Out : NoFill up missing offset samples with silence : YesDelete leading and trailing silent blocks : NoNull samples used in CRC calculations : YesUsed interface : Native Win32 interface for Win NT & 2000Gap handling : Appended to previous track

Used output format : User Defined EncoderSelected bitrate : 320 kBit/sQuality : HighAdd ID3 tag : NoCommand line compressor : C:\Program Files\Exact Audio Copy\Flac\flac.exeAdditional command line options : -V -8 -T "artist=%a" -T "title=%t" -T "album=%g" -T "date=%y" -T "tracknumber=%n" -T "genre=%m" %s

TOC of the extracted CD

Track | Start | Length | Start sector | End sector --------------------------------------------------------- 1 | 0:00.00 | 2:54.37 | 0 | 13086 2 | 2:54.37 | 3:50.40 | 13087 | 30376 3 | 6:45.02 | 2:21.28 | 30377 | 40979 4 | 9:06.30 | 1:47.65 | 40980 | 49069 5 | 10:54.20 | 0:59.07 | 49070 | 53501 6 | 11:53.27 | 2:07.15 | 53502 | 63041 7 | 14:00.42 | 1:54.50 | 63042 | 71641 8 | 15:55.17 | 2:25.18 | 71642 | 82534 9 | 18:20.35 | 3:15.70 | 82535 | 97229 10 | 21:36.30 | 2:21.65 | 97230 | 107869 11 | 23:58.20 | 1:44.20 | 107870 | 115689 12 | 25:42.40 | 3:58.20 | 115690 | 133559 13 | 29:40.60 | 2:02.05 | 133560 | 142714

Track 1

Filename C:\Rob Wasserman - 1982 - Solo\01 - Thirteen.wav

Pre-gap length 0:00:02.00

Peak level 77.5 % Track quality 99.9 % Test CRC 97720FF5 Copy CRC 97720FF5 Accurately ripped (confidence 5) [7142291C] Copy OK

Track 2

Filename C:\Rob Wasserman - 1982 - Solo\02 - Lima Twist.wav

Pre-gap length 0:00:00.02

Peak level 89.8 % Track quality 100.0 % Test CRC 88AD07E5 Copy CRC 88AD07E5 Accurately ripped (confidence 5) [A6623755] Copy OK

Track 3

Filename C:\Rob Wasserman - 1982 - Solo\03 - Sunway.wav

Pre-gap length 0:00:03.40

Peak level 83.3 % Track quality 100.0 % Test CRC ABF450FD Copy CRC ABF450FD Accurately ripped (confidence 5) [0466A042] Copy OK

Track 4

Filename C:\Rob Wasserman - 1982 - Solo\04 - Punk sizzle.wav

Pre-gap length 0:00:02.20

Peak level 85.5 % Track quality 100.0 % Test CRC F0BD1677 Copy CRC F0BD1677 Accurately ripped (confidence 5) [F27031E2] Copy OK

Track 5

Filename C:\Rob Wasserman - 1982 - Solo\05 - Clare.wav

Pre-gap length 0:00:02.66

Peak level 56.7 % Track quality 99.8 % Test CRC 574F7CA0 Copy CRC 574F7CA0 Accurately ripped (confidence 5) [35564282] Copy OK

Track 6

Filename C:\Rob Wasserman - 1982 - Solo\06 - Lady Be Good.wav

Pre-gap length 0:00:02.86

Peak level 97.3 % Track quality 100.0 % Test CRC 4AB35334 Copy CRC 4AB35334 Accurately ripped (confidence 5) [F258DEB8] Copy OK

Track 7

Filename C:\Rob Wasserman - 1982 - Solo\07 - Strumming.wav

Pre-gap length 0:00:01.69

Peak level 58.2 % Track quality 100.0 % Test CRC AF9B696E Copy CRC AF9B696E Accurately ripped (confidence 5) [CF1BF5B0] Copy OK

Track 8

Filename C:\Rob Wasserman - 1982 - Solo\08 - Bass Blue.wav

Pre-gap length 0:00:00.49

Peak level 76.2 % Track quality 100.0 % Test CRC 668DC88E Copy CRC 668DC88E Accurately ripped (confidence 5) [83586669] Copy OK

Track 9

Filename C:\Rob Wasserman - 1982 - Solo\09 - Bass Space.wav

Pre-gap length 0:00:00.57

Peak level 84.2 % Track quality 100.0 % Test CRC F2D63940 Copy CRC F2D63940 Accurately ripped (confidence 5) [6EED5236] Copy OK

Track 10

Filename C:\Rob Wasserman - 1982 - Solo\10 - April Aire.wav

Pre-gap length 0:00:03.13

Peak level 40.4 % Track quality 100.0 % Test CRC 93C3DE20 Copy CRC 93C3DE20 Accurately ripped (confidence 5) [731F1FBB] Copy OK

Track 11

Filename C:\Rob Wasserman - 1982 - Solo\11 - Freedom Bass Dance.wav

Pre-gap length 0:00:02.10

Peak level 87.1 % Track quality 99.8 % Test CRC 4EDE9B95 Copy CRC 4EDE9B95 Accurately ripped (confidence 5) [36DFA049] Copy OK

Track 12

Filename C:\Rob Wasserman - 1982 - Solo\12 - Ode to Casals.wav

Pre-gap length 0:00:04.80

Peak level 73.2 % Track quality 100.0 % Test CRC AD8DEFF0 Copy CRC AD8DEFF0 Accurately ripped (confidence 5) [049B04B3] Copy OK

Track 13

Filename C:\Rob Wasserman - 1982 - Solo\13 - Sara's Rainbow Song.wav

Pre-gap length 0:00:01.57

Peak level 82.2 % Track quality 100.0 % Test CRC BEF72608 Copy CRC BEF72608 Accurately ripped (confidence 5) [AF5BF050] Copy OK

All tracks accurately ripped

No errors occurred

End of status report
 
REM GENRE BassREM DATE 1982REM DISCID AE076E0DREM COMMENT "ExactAudioCopy v0.99pb5"PERFORMER "Rob Wasserman"TITLE "Solo"FILE "01 - Thirteen.wav" WAVE TRACK 01 AUDIO TITLE "Thirteen" PERFORMER "Rob Wasserman" INDEX 01 00:00:00 TRACK 02 AUDIO TITLE "Lima Twist" PERFORMER "Rob Wasserman" INDEX 00 02:54:35FILE "02 - Lima Twist.wav" WAVE INDEX 01 00:00:00 TRACK 03 AUDIO TITLE "Sunway" PERFORMER "Rob Wasserman" INDEX 00 03:47:10FILE "03 - Sunway.wav" WAVE INDEX 01 00:00:00 TRACK 04 AUDIO TITLE "Punk sizzle" PERFORMER "Rob Wasserman" INDEX 00 02:19:13FILE "04 - Punk sizzle.wav" WAVE INDEX 01 00:00:00 TRACK 05 AUDIO TITLE "Clare" PERFORMER "Rob Wasserman" INDEX 00 01:45:15FILE "05 - Clare.wav" WAVE INDEX 01 00:00:00 TRACK 06 AUDIO TITLE "Lady Be Good" PERFORMER "Rob Wasserman" INDEX 00 00:56:17FILE "06 - Lady Be Good.wav" WAVE INDEX 01 00:00:00 TRACK 07 AUDIO TITLE "Strumming" PERFORMER "Rob Wasserman" INDEX 00 02:05:38FILE "07 - Strumming.wav" WAVE INDEX 01 00:00:00 TRACK 08 AUDIO TITLE "Bass Blue" PERFORMER "Rob Wasserman" INDEX 00 01:54:13FILE "08 - Bass Blue.wav" WAVE INDEX 01 00:00:00 TRACK 09 AUDIO TITLE "Bass Space" PERFORMER "Rob Wasserman" INDEX 00 02:24:50FILE "09 - Bass Space.wav" WAVE INDEX 01 00:00:00 TRACK 10 AUDIO TITLE "April Aire" PERFORMER "Rob Wasserman" INDEX 00 03:12:60FILE "10 - April Aire.wav" WAVE INDEX 01 00:00:00 TRACK 11 AUDIO TITLE "Freedom Bass Dance" PERFORMER "Rob Wasserman" INDEX 00 02:19:57FILE "11 - Freedom Bass Dance.wav" WAVE INDEX 01 00:00:00 TRACK 12 AUDIO TITLE "Ode to Casals" PERFORMER "Rob Wasserman" INDEX 00 01:39:35FILE "12 - Ode to Casals.wav" WAVE INDEX 01 00:00:00 TRACK 13 AUDIO TITLE "Sara's Rainbow Song" PERFORMER "Rob Wasserman" INDEX 00 03:56:52FILE "13 - Sara's Rainbow Song.wav" WAVE INDEX 01 00:00:00


Трекер:  [ 29-Янв-2012 17:02 ]

  

Скачать .torrent

Размер .torrent файла 21 KB


Размер: 127 MB
Хэш (hash) релиза: 9f29af842d4af50383b3cdacea957490375f9dcc

Еще никто не оставлял запись к записи скачать торрент Rob Wasserman - Solo - 1994, FLAC . Будь первым!

!Обратная связь