Скачать через торрент музыку Hugh Ragin Collective - Back To Saturn - 2000, FLAC бесплатно без регистрации torrent

Если у вас наблюдаются проблемы со скриншотами, переходом по ссылками, скачиванием торрентов - проблемы в блокировщике рекламы AdBlock. #хорошегоДня!


Статистика раздачи
Размер:  398 MB   |    Зарегистрирован:  5 лет 8 месяцев   |    .torrent скачан:  22 раза   |   
Раздают:  1  
   
Загрузка...
 
Автор Сообщение

Umakiro

avatar Umakiro


Hugh Ragin Collective / Back To Saturn

Жанр: Post-Bop, Trumpet Jazz
Страна-производитель диска: Italy
Год издания диска: 2000
Издатель (лейбл): Black Saint
Номер по каталогу: 120160-2
Страна: US Houston
Аудиокодек: FLAC (*.flac)
Тип рипа: tracks+.cue
Битрейт аудио: lossless
Продолжительность: 01:05:31
Источник (релизер): сеть
Наличие сканов в содержимом раздачи: да
Треклист:
01. Blue Honda ala Truck [09:18]
02. Fanfare and Fiesta [06:45]
03. Bud like [04:06]
04. Song forthe Old Country [08:15]
05. Pictures [11:41]
06. Hughs Blues [07:24]
07. Goblin Market [08:16]
08. Back to Saturn [09:43]
 
Exact Audio Copy V1.0 beta 1 from 15. November 2010

EAC extraction logfile from 19. February 2011, 19:20

Hugh Ragin (Collective) / Back to Saturn

Used drive : HL-DT-STDVD-RAM GH22NS30 Adapter: 1 ID: 1

Read mode : SecureUtilize accurate stream : YesDefeat audio cache : YesMake use of C2 pointers : No

Read offset correction : 102Overread into Lead-In and Lead-Out : NoFill up missing offset samples with silence : YesDelete leading and trailing silent blocks : NoNull samples used in CRC calculations : YesUsed interface : Native Win32 interface for Win NT & 2000Gap handling : Appended to previous track

Used output format : User Defined EncoderSelected bitrate : 768 kBit/sQuality : HighAdd ID3 tag : NoCommand line compressor : C:\Programmi\Exact Audio Copy\Flac\flac.exeAdditional command line options : -8 -V -T "ARTIST=%a" -T "TITLE=%t" -T "ALBUM=%g" -T "DATE=%y" -T "TRACKNUMBER=%n" -T "TOTALTRACKS=%x" -T "GENRE=%m" -T "ALBUMARTIST=%v" -T "ALBUM ARTIST=%v" -T "COMMENT=EAC Secure Mode, Test & Copy, AccurateRip, FLAC -8" %s

TOC of the extracted CD

Track | Start | Length | Start sector | End sector --------------------------------------------------------- 1 | 0:00.00 | 9:18.70 | 0 | 41919 2 | 9:18.70 | 6:45.22 | 41920 | 72316 3 | 16:04.17 | 4:06.23 | 72317 | 90789 4 | 20:10.40 | 8:15.27 | 90790 | 127941 5 | 28:25.67 | 11:41.33 | 127942 | 180549 6 | 40:07.25 | 7:24.02 | 180550 | 213851 7 | 47:31.27 | 8:16.05 | 213852 | 251056 8 | 55:47.32 | 9:43.65 | 251057 | 294846

Track 1

Filename C:\Documents and Settings\user\Desktop\Hugh Ragin Collective - Back To Saturn (2000) [FLAC] {Black Saint}\01 - Blue Honda ala Truck.wav

Pre-gap length 0:00:02.00

Peak level 99.9 % Extraction speed 1.9 X Track quality 100.0 % Test CRC 04C51ACE Copy CRC 04C51ACE Track not present in AccurateRip database Copy OK

Track 2

Filename C:\Documents and Settings\user\Desktop\Hugh Ragin Collective - Back To Saturn (2000) [FLAC] {Black Saint}\02 - Fanfare and Fiesta.wav

Peak level 83.1 % Extraction speed 2.2 X Track quality 100.0 % Test CRC 21C5FBCD Copy CRC 21C5FBCD Track not present in AccurateRip database Copy OK

Track 3

Filename C:\Documents and Settings\user\Desktop\Hugh Ragin Collective - Back To Saturn (2000) [FLAC] {Black Saint}\03 - Bud like.wav

Peak level 99.9 % Extraction speed 2.3 X Track quality 100.0 % Test CRC B8AD6357 Copy CRC B8AD6357 Track not present in AccurateRip database Copy OK

Track 4

Filename C:\Documents and Settings\user\Desktop\Hugh Ragin Collective - Back To Saturn (2000) [FLAC] {Black Saint}\04 - Song forthe Old Country.wav

Peak level 99.9 % Extraction speed 2.7 X Track quality 100.0 % Test CRC 11C768DE Copy CRC 11C768DE Track not present in AccurateRip database Copy OK

Track 5

Filename C:\Documents and Settings\user\Desktop\Hugh Ragin Collective - Back To Saturn (2000) [FLAC] {Black Saint}\05 - Pictures.wav

Peak level 99.9 % Extraction speed 3.0 X Track quality 100.0 % Test CRC 52A99F99 Copy CRC 52A99F99 Track not present in AccurateRip database Copy OK

Track 6

Filename C:\Documents and Settings\user\Desktop\Hugh Ragin Collective - Back To Saturn (2000) [FLAC] {Black Saint}\06 - Hughs Blues.wav

Peak level 99.9 % Extraction speed 3.2 X Track quality 100.0 % Test CRC 95006C8C Copy CRC 95006C8C Track not present in AccurateRip database Copy OK

Track 7

Filename C:\Documents and Settings\user\Desktop\Hugh Ragin Collective - Back To Saturn (2000) [FLAC] {Black Saint}\07 - Goblin Market.wav

Peak level 89.1 % Extraction speed 3.2 X Track quality 99.9 % Test CRC DABEA6C4 Copy CRC DABEA6C4 Track not present in AccurateRip database Copy OK

Track 8

Filename C:\Documents and Settings\user\Desktop\Hugh Ragin Collective - Back To Saturn (2000) [FLAC] {Black Saint}\08 - Back to Saturn.wav

Peak level 99.9 % Extraction speed 3.7 X Track quality 100.0 % Test CRC 1BB45128 Copy CRC 1BB45128 Track not present in AccurateRip database Copy OK

None of the tracks are present in the AccurateRip database

No errors occurred

End of status report

==== Log checksum AC5434D481EFF237269867A52FF459CA8E410038D67D5435EA2BDB5CE860AA64 ====
 
REM GENRE JazzREM DATE 2000REM DISCID 6B0F5B08REM COMMENT "ExactAudioCopy v1.0b1"PERFORMER "Hugh Ragin (Collective)"TITLE "Back to Saturn"FILE "01 - Blue Honda ala Truck.wav" WAVE TRACK 01 AUDIO TITLE "Blue Honda ala Truck" PERFORMER "Hugh Ragin (Collective)" INDEX 01 00:00:00FILE "02 - Fanfare and Fiesta.wav" WAVE TRACK 02 AUDIO TITLE "Fanfare and Fiesta" PERFORMER "Hugh Ragin (Collective)" INDEX 01 00:00:00FILE "03 - Bud like.wav" WAVE TRACK 03 AUDIO TITLE "Bud like" PERFORMER "Hugh Ragin (Collective)" INDEX 01 00:00:00FILE "04 - Song forthe Old Country.wav" WAVE TRACK 04 AUDIO TITLE "Song forthe Old Country" PERFORMER "Hugh Ragin (Collective)" INDEX 01 00:00:00FILE "05 - Pictures.wav" WAVE TRACK 05 AUDIO TITLE "Pictures" PERFORMER "Hugh Ragin (Collective)" INDEX 01 00:00:00FILE "06 - Hughs Blues.wav" WAVE TRACK 06 AUDIO TITLE "Hughs Blues" PERFORMER "Hugh Ragin (Collective)" INDEX 01 00:00:00FILE "07 - Goblin Market.wav" WAVE TRACK 07 AUDIO TITLE "Goblin Market" PERFORMER "Hugh Ragin (Collective)" INDEX 01 00:00:00FILE "08 - Back to Saturn.wav" WAVE TRACK 08 AUDIO TITLE "Back to Saturn" PERFORMER "Hugh Ragin (Collective)" INDEX 01 00:00:00
 
-----------------------

DON'T MODIFY THIS FILE

-----------------------

PERFORMER: auCDtect Task Manager, ver. 1.5.1RC6 build 1.5.1.7Copyright (c) 2008-2010 y-soft. All rights reservedhttp://y-soft.org

ANALYZER: auCDtect: CD records authenticity detector, version 0.8.2Copyright (c) 2004 Oleg Berngardt. All rights reserved.Copyright (c) 2004 Alexander Djourik. All rights reserved.

FILE: 08 - Back to Saturn.flac Size: 45272407 Hash: 540D7DFAE24B1257B3EA2430370FC56A Accuracy: -m0 Conclusion: CDDA 100% Signature: 632100EDD53582B4F5EBEE45D5327D63CC3E7CBEFILE: 07 - Goblin Market.flac Size: 55302116 Hash: 917C46DD6F4C92301E5AC7774B463585 Accuracy: -m0 Conclusion: CDDA 100% Signature: B95B1CBD909B620CD2031AFCF395DBC787B7D6EDFILE: 06 - Hughs Blues.flac Size: 47143908 Hash: 069E839E21F53AF5C7C078684C9B2D8E Accuracy: -m0 Conclusion: CDDA 100% Signature: 3784DA330F44DE52121C612807BD0654B63191A3FILE: 05 - Pictures.flac Size: 75536393 Hash: 9CB0716BA4D49B9B57603E4EBE509255 Accuracy: -m0 Conclusion: CDDA 99% Signature: 54F71FC71CEE0AD837B290FFC10181FAEF5D56D9FILE: 04 - Song forthe Old Country.flac Size: 53910338 Hash: 0CE83E86B56A71B9539DF437381FC6EB Accuracy: -m0 Conclusion: CDDA 100% Signature: 0FF5BEA163AF619CC190AFA9197C3AE6EFCE9835FILE: 03 - Bud like.flac Size: 27406868 Hash: CB3519C9FC7F73E0FE07AAEBD03B2DB2 Accuracy: -m0 Conclusion: CDDA 100% Signature: 4085559579AFA6124D41124810169B33B575E53AFILE: 02 - Fanfare and Fiesta.flac Size: 45138565 Hash: 8431ED4980BDF745F11AE5ACFBCACC6F Accuracy: -m0 Conclusion: CDDA 99% Signature: 0AA60C3C212D0D9DD260CA6932AC8FC3F2CEC551FILE: 01 - Blue Honda ala Truck.flac Size: 63702541 Hash: 8A57B5CE154AED03226D3C5A550C324A Accuracy: -m0 Conclusion: CDDA 100% Signature: 3274E6FCF1AF1E1F08EC5B41F8FDB8A07B13DC9D
Hugh Ragin (trumpet);
Greg Caroll (vibraphone, percussion);
Marc Sabatella (piano);
Erik Turkman (bass);
Scott Gordan (drums).


Трекер:  [ 29-Янв-2012 17:02 ]

  

Скачать .torrent

Размер .torrent файла 17 KB


Размер: 398 MB
Хэш (hash) релиза: b9ec0e11d19888b146fd23985ef3377668ab1699

Еще никто не оставлял запись к записи скачать торрент Hugh Ragin Collective - Back To Saturn - 2000, FLAC . Будь первым!

!Обратная связь