Скачать через торрент музыку Booker Ervin - Heavy!!! - бесплатно без регистрации torrent

Если у вас наблюдаются проблемы со скриншотами, переходом по ссылками, скачиванием торрентов - проблемы в блокировщике рекламы AdBlock. #хорошегоДня!


Статистика раздачи
Размер:  281 MB   |    Зарегистрирован:  5 лет 8 месяцев   |    .torrent скачан:  31 раз   |   
Раздают:  1  
   
Загрузка...
 
Автор Сообщение

Umakiro

avatar Umakiro


Booker Ervin / Heavy!!!

Жанр: Hard Bop, Post-Bop, Saxophone Jazz
Страна-производитель диска: USA
Год издания диска: (1966) - 1998
Издатель (лейбл): Prestige Records
Номер по каталогу: OJCCD-981-2
Страна: US Denison, TX
Аудиокодек: FLAC (*.flac)
Тип рипа: tracks+.cue
Битрейт аудио: lossless
Продолжительность: 00:41:29
Источник (релизер): mishka1981
Наличие сканов в содержимом раздачи: да
Треклист:
01. Bachafillen [08:11]
02. You Don't Know What Love Is [08:40]
03. Aluminum Baby [04:57]
04. Not Quite That [07:51]
05. Not Quite That [07:51]
06. Ode to Charlie Parker [03:57]
 
EAC extraction logfile from 6. March 2007, 16:51 for CDThe Booker Ervin Sextet / Heavy!!!

Used drive : HL-DT-STDVDRAM GSA-4163B Adapter: 1 ID: 1Read mode : Secure with NO C2, accurate stream, disable cacheRead offset correction : 667Overread into Lead-In and Lead-Out : No

Used output format : Internal WAV Routines 44.100 Hz; 16 Bit; Stereo

Other options : Fill up missing offset samples with silence : Yes Delete leading and trailing silent blocks : No Installed external ASPI interface

Track 1 Filename D:\Booker Ervin - Heavy!!! (1966)[FLAC]{OJC}\01 - Bдchafillen.wav

Pre-gap length 0:00:02.00

Peak level 89.1 % Track quality 100.0 % Test CRC D5AE6C70 Copy CRC D5AE6C70 Copy OK

Track 2 Filename D:\Booker Ervin - Heavy!!! (1966)[FLAC]{OJC}\02 - You Don't Know What Love Is.wav

Pre-gap length 0:00:04.29

Peak level 97.8 % Track quality 100.0 % Test CRC 0849B484 Copy CRC 0849B484 Copy OK

Track 3 Filename D:\Booker Ervin - Heavy!!! (1966)[FLAC]{OJC}\03 - Aluminum Baby.wav

Pre-gap length 0:00:02.60

Peak level 78.2 % Track quality 100.0 % Test CRC 87ADD57D Copy CRC 87ADD57D Copy OK

Track 4 Filename D:\Booker Ervin - Heavy!!! (1966)[FLAC]{OJC}\04 - Not Quite That.wav

Pre-gap length 0:00:03.21

Peak level 90.4 % Track quality 100.0 % Test CRC 0CFBF709 Copy CRC 0CFBF709 Copy OK

Track 5 Filename D:\Booker Ervin - Heavy!!! (1966)[FLAC]{OJC}\05 - Bei mir bist Du schцn.wav

Pre-gap length 0:00:03.39

Peak level 89.1 % Track quality 99.9 % Test CRC 8DCA3CFF Copy CRC 8DCA3CFF Copy OK

Track 6 Filename D:\Booker Ervin - Heavy!!! (1966)[FLAC]{OJC}\06 - Ode to Charlie Parker.wav

Pre-gap length 0:00:02.66

Peak level 87.7 % Track quality 100.0 % Test CRC D8C38E8C Copy CRC D8C38E8C Copy OK

No errors occured

End of status report
 
REM GENRE JazzREM DATE 1966REM DISCID 470ADC06REM COMMENT "ExactAudioCopy v0.95b2"PERFORMER "The Booker Ervin Sextet"TITLE "Heavy!!!"FILE "01 - Bachafillen.wav" WAVE TRACK 01 AUDIO TITLE "Bдchafillen" PERFORMER "The Booker Ervin Sextet" INDEX 01 00:00:00 TRACK 02 AUDIO TITLE "You Don't Know What Love Is" PERFORMER "The Booker Ervin Sextet" INDEX 00 08:11:41FILE "02 - You Don't Know What Love Is.wav" WAVE INDEX 01 00:00:00 TRACK 03 AUDIO TITLE "Aluminum Baby" PERFORMER "The Booker Ervin Sextet" INDEX 00 08:40:35FILE "03 - Aluminum Baby.wav" WAVE INDEX 01 00:00:00 TRACK 04 AUDIO TITLE "Not Quite That" PERFORMER "The Booker Ervin Sextet" INDEX 00 04:57:01FILE "04 - Not Quite That.wav" WAVE INDEX 01 00:00:00 TRACK 05 AUDIO TITLE "Bei mir bist Du schцn" PERFORMER "The Booker Ervin Sextet" INDEX 00 07:51:19FILE "05 - Bei mir bist Du schцn.wav" WAVE INDEX 01 00:00:00 TRACK 06 AUDIO TITLE "Ode to Charlie Parker" PERFORMER "The Booker Ervin Sextet" INDEX 00 12:25:16FILE "06 - Ode to Charlie Parker.wav" WAVE INDEX 01 00:00:00
 
-----------------------

DON'T MODIFY THIS FILE

-----------------------

PERFORMER: auCDtect Task Manager, ver. 1.5.1RC6 build 1.5.1.7Copyright (c) 2008-2010 y-soft. All rights reservedhttp://y-soft.org

ANALYZER: auCDtect: CD records authenticity detector, version 0.8.2Copyright (c) 2004 Oleg Berngardt. All rights reserved.Copyright (c) 2004 Alexander Djourik. All rights reserved.

FILE: 06 - Ode to Charlie Parker.flac Size: 22403397 Hash: 3A58CEED6A2210C62FC75FB9CF85CF0F Accuracy: -m0 Conclusion: CDDA 100% Signature: 7E82CDCC2481EC208767251BEBDB958BECD2513DFILE: 05 - Bei mir bist Du schön.flac Size: 77507589 Hash: 21BDADE9C9B9E352ADC66BF0030FC34C Accuracy: -m0 Conclusion: CDDA 99% Signature: 72AA6628C40E0FB4D90166B6B417D0A7A9AA5805FILE: 04 - Not Quite That.flac Size: 46855277 Hash: 93F78BDA55FB16839801CD6A6251B450 Accuracy: -m0 Conclusion: CDDA 100% Signature: BD983AA9816792E60DD4BB9467C1AAADC618507CFILE: 03 - Aluminum Baby.flac Size: 29837027 Hash: 4EAB36F2988C1498D0E2F109A573C379 Accuracy: -m0 Conclusion: CDDA 100% Signature: F58B64422BB966A3A69F086D9B4FA7E916AC0B87FILE: 02 - You Don't Know What Love Is.flac Size: 48631312 Hash: F01FA1ED4EB83E98E076200F43D0393C Accuracy: -m0 Conclusion: CDDA 100% Signature: 358B89F6E3AF4263FB780B4DDF2EC3C0B66BF44DFILE: 01 - Bächafillen.flac Size: 56707044 Hash: 97633E76B6BC6804E1BC117AFCAB28B7 Accuracy: -m0 Conclusion: CDDA 100% Signature: EDE50119014196BA589D3250F736314E87493803
Booker Ervin (tenor saxophone);
Jimmy Owens (trumpet, flugelhorn);
Garnett Brown (trombone);
Jaki Byard (piano);
Richard Davis (bass)
Alan Dawson (drums).


Трекер:  [ 29-Янв-2012 17:01 ]

  

Скачать .torrent

Размер .torrent файла 12 KB


Размер: 281 MB
Хэш (hash) релиза: b8dde12690467189b18eef59a52da8fad453dc39

Еще никто не оставлял запись к записи скачать торрент Booker Ervin - Heavy!!! - . Будь первым!

!Обратная связь