Скачать через торрент музыку Omar Sosa - A New Life бесплатно без регистрации torrent

Если у вас наблюдаются проблемы со скриншотами, переходом по ссылками, скачиванием торрентов - проблемы в блокировщике рекламы AdBlock. #хорошегоДня!


Статистика раздачи
Размер:  309 MB   |    Зарегистрирован:  5 лет 8 месяцев   |    .torrent скачан:  46 раз   |   
Раздают:  1  
   
Загрузка...
 
Автор Сообщение

Umakiro

avatar Umakiro


Omar Sosa - A New Life (Solo Piano)

Жанр: Afro-Cuban Jazz, Latin Jazz, Post-Bop
Страна-производитель диска: Germany
Год издания диска: 2003
Издатель (лейбл): Ota Records
Номер по каталогу: SKP 9041-2
Страна: Camagüey, Cuba
Аудиокодек: FLAC (*.flac)
Тип рипа: image+.cue
Битрейт аудио: lossless
Продолжительность: 01:12:49
Источник (релизер): InFocus
Наличие сканов в содержимом раздачи: да
01. Calling The Baby [00:32]
02. Una Mano [02:41]
03. Three Persons [01:14]
04. Crash De la Tierra [02:21]
05. Vuelvo Iyawo [05:19]
06. Danzon De Los Indios [03:51]
07. Escucho [05:05]
08. El Puente Conversando [05:53]
09. El Aliento [02:03]
10. Memory [05:28]
11. Paloma Herida [05:31]
12. Ofrenda [05:39]
13. El Campo De Arere [06:42]
14. La Otra Mano [03:45]
15. Crashing Waves [04:52]
16. Suenos De Infancia [03:01]
17. Nacimiento [05:11]
18. Otra Nana [03:35]
 
Exact Audio Copy V0.99 prebeta 5 from 4. May 2009

EAC extraction logfile from 20. December 2009, 2:09

Omar Sosa / ... A New Life (Solo Piano)

Used drive : HL-DT-STDVD-ROM GDR8164B Adapter: 2 ID: 1

Read mode : SecureUtilize accurate stream : YesDefeat audio cache : YesMake use of C2 pointers : No

Read offset correction : 102Overread into Lead-In and Lead-Out : NoFill up missing offset samples with silence : YesDelete leading and trailing silent blocks : NoNull samples used in CRC calculations : YesUsed interface : Native Win32 interface for Win NT & 2000

Used output format : User Defined EncoderSelected bitrate : 1024 kBit/sQuality : HighAdd ID3 tag : NoCommand line compressor : C:\Programs\EAC\flac.exeAdditional command line options : -V -8 -T "artist=%a" -T "title=%t" -T "album=%g" -T "date=%y" -T "tracknumber=%n" -T "genre=%m" %s

TOC of the extracted CD

Track | Start | Length | Start sector | End sector --------------------------------------------------------- 1 | 0:00.00 | 0:32.22 | 0 | 2421 2 | 0:32.22 | 2:41.08 | 2422 | 14504 3 | 3:13.30 | 1:14.46 | 14505 | 20100 4 | 4:28.01 | 2:21.11 | 20101 | 30686 5 | 6:49.12 | 5:19.15 | 30687 | 54626 6 | 12:08.27 | 3:51.50 | 54627 | 72001 7 | 16:00.02 | 5:05.69 | 72002 | 94945 8 | 21:05.71 | 5:53.23 | 94946 | 121443 9 | 26:59.19 | 2:03.08 | 121444 | 130676 10 | 29:02.27 | 5:28.06 | 130677 | 155282 11 | 34:30.33 | 5:31.15 | 155283 | 180122 12 | 40:01.48 | 5:39.35 | 180123 | 205582 13 | 45:41.08 | 6:42.53 | 205583 | 235785 14 | 52:23.61 | 3:45.14 | 235786 | 252674 15 | 56:09.00 | 4:52.22 | 252675 | 274596 16 | 61:01.22 | 3:01.53 | 274597 | 288224 17 | 64:03.00 | 5:11.09 | 288225 | 311558 18 | 69:14.09 | 3:35.49 | 311559 | 327732

Range status and errors

Selected range

Filename C:\EAC\0Flac\Omar Sosa - ... A New Life (Solo Piano).wav

Peak level 87.4 % Range quality 100.0 % Test CRC 35FB5B8E Copy CRC 35FB5B8E Copy OK

No errors occurred

AccurateRip summary

Track 1 not present in databaseTrack 2 not present in databaseTrack 3 not present in databaseTrack 4 not present in databaseTrack 5 not present in databaseTrack 6 not present in databaseTrack 7 not present in databaseTrack 8 not present in databaseTrack 9 not present in databaseTrack 10 not present in databaseTrack 11 not present in databaseTrack 12 not present in databaseTrack 13 not present in databaseTrack 14 not present in databaseTrack 15 not present in databaseTrack 16 not present in databaseTrack 17 not present in databaseTrack 18 not present in database

None of the tracks are present in the AccurateRip database

End of status report
 
REM GENRE JazzREM DATE 2003REM DISCID E1111112REM COMMENT "ExactAudioCopy v0.99pb5"PERFORMER "Omar Sosa"TITLE "... A New Life (Solo Piano)"FILE "Omar Sosa - ... A New Life (Solo Piano).flac" WAVE TRACK 01 AUDIO TITLE "Calling The Baby" PERFORMER "Omar Sosa" INDEX 01 00:00:00 TRACK 02 AUDIO TITLE "Una Mano " PERFORMER "Omar Sosa" INDEX 00 00:29:51 INDEX 01 00:32:22 TRACK 03 AUDIO TITLE "Three Persons " PERFORMER "Omar Sosa" INDEX 00 03:10:66 INDEX 01 03:13:30 TRACK 04 AUDIO TITLE "Crash De la Tierra " PERFORMER "Omar Sosa" INDEX 01 04:28:01 TRACK 05 AUDIO TITLE "Vuelvo Iyawo " PERFORMER "Omar Sosa" INDEX 00 06:46:60 INDEX 01 06:49:12 TRACK 06 AUDIO TITLE "Danzon De Los Indios " PERFORMER "Omar Sosa" INDEX 00 12:06:44 INDEX 01 12:08:27 TRACK 07 AUDIO TITLE "Escucho " PERFORMER "Omar Sosa" INDEX 01 16:00:02 TRACK 08 AUDIO TITLE "El Puente Conversando " PERFORMER "Omar Sosa" INDEX 01 21:05:71 TRACK 09 AUDIO TITLE "El Aliento " PERFORMER "Omar Sosa" INDEX 00 26:58:13 INDEX 01 26:59:19 TRACK 10 AUDIO TITLE "Memory " PERFORMER "Omar Sosa" INDEX 00 28:58:35 INDEX 01 29:02:27 TRACK 11 AUDIO TITLE "Paloma Herida " PERFORMER "Omar Sosa" INDEX 00 34:28:28 INDEX 01 34:30:33 TRACK 12 AUDIO TITLE "Ofrenda " PERFORMER "Omar Sosa" INDEX 00 39:58:12 INDEX 01 40:01:48 TRACK 13 AUDIO TITLE "El Campo De Arere " PERFORMER "Omar Sosa" INDEX 01 45:41:08 TRACK 14 AUDIO TITLE "La Otra Mano " PERFORMER "Omar Sosa" INDEX 00 52:21:16 INDEX 01 52:23:61 TRACK 15 AUDIO TITLE "Crashing Waves" PERFORMER "Omar Sosa" INDEX 00 56:07:67 INDEX 01 56:09:00 TRACK 16 AUDIO TITLE "Suenos De Infancia " PERFORMER "Omar Sosa" INDEX 01 61:01:22 TRACK 17 AUDIO TITLE "Nacimiento " PERFORMER "Omar Sosa" INDEX 00 63:59:63 INDEX 01 64:03:00 TRACK 18 AUDIO TITLE "Otra Nana " PERFORMER "Omar Sosa" INDEX 00 68:54:68 INDEX 01 69:14:09
 
-----------------------

DON'T MODIFY THIS FILE

-----------------------

PERFORMER: auCDtect Task Manager, ver. 1.5.1RC6 build 1.5.1.7Copyright (c) 2008-2010 y-soft. All rights reservedhttp://y-soft.org

ANALYZER: auCDtect: CD records authenticity detector, version 0.8.2Copyright (c) 2004 Oleg Berngardt. All rights reserved.Copyright (c) 2004 Alexander Djourik. All rights reserved.

FILE: Omar Sosa - ... A New Life (Solo Piano).flac Size: 299263773 Hash: 4AF3772EC5D3D52219A613A72AA7AAFC Accuracy: -m0 Conclusion: CDDA 100% Signature: E0B395CA70EE3EFDD78F472A040B81313FB550BE


Трекер:  [ 29-Янв-2012 17:01 ]

  

Скачать .torrent

Размер .torrent файла 13 KB


Размер: 309 MB
Хэш (hash) релиза: cb1297041f69219ad008b04af0bbec7ed2e17036

Еще никто не оставлял запись к записи скачать торрент Omar Sosa - A New Life . Будь первым!

!Обратная связь