Скачать через торрент музыку Booker Ervin - Thats It - бесплатно без регистрации torrent

Если у вас наблюдаются проблемы со скриншотами, переходом по ссылками, скачиванием торрентов - проблемы в блокировщике рекламы AdBlock. #хорошегоДня!


Статистика раздачи
Размер:  288 MB   |    Зарегистрирован:  5 лет 8 месяцев   |    .torrent скачан:  31 раз   |   
Раздают:  1  
   
Загрузка...
 
Автор Сообщение

Umakiro

avatar Umakiro


Booker Ervin / That's It

Жанр: Hard Bop, Post-Bop, Saxophone Jazz
Страна-производитель диска: England
Год издания диска: (1961) - 1989
Издатель (лейбл): Candid records
Номер по каталогу: CCD 79014
Страна: US Denison, TX
Аудиокодек: FLAC (*.flac)
Тип рипа: tracks+.cue
Битрейт аудио: lossless
Продолжительность: 00:43:18
Источник (релизер): wursthans
Наличие сканов в содержимом раздачи: да
Треклист:
01. Mojo [07:57]
02. Uranus [04:32]
03. Poinciana [08:04]
04. Speak Low [07:12]
05. Booker's Blues [10:59]
06. Boo [04:32]
 
Exact Audio Copy V0.99 prebeta 4 from 23. January 2008

EAC extraction logfile from 26. March 2009, 19:21

Booker Ervin / That's It

Used drive : PLEXTOR CD-R PREMIUM2 Adapter: 3 ID: 0

Read mode : SecureUtilize accurate stream : YesDefeat audio cache : YesMake use of C2 pointers : No

Read offset correction : 30Overread into Lead-In and Lead-Out : YesFill up missing offset samples with silence : YesDelete leading and trailing silent blocks : NoNull samples used in CRC calculations : YesUsed interface : Native Win32 interface for Win NT & 2000Gap handling : Appended to previous track

Used output format : User Defined EncoderSelected bitrate : 128 kBit/sQuality : HighAdd ID3 tag : NoCommand line compressor : D:\Programme\EAC099\Flac\flac.exeAdditional command line options : -5 -V -T "ARTIST=%a" -T "TITLE=%t" -T "ALBUM=%g" -T "DATE=%y" -T "TRACKNUMBER=%n" -T "TOTALTRACKS=%x" -T "GENRE=%m" -T "ALBUM ARTIST=%v" -T "ALBUMARTIST=%v" -T "COMMENT=EAC V0.99 prebeta 4, Secure Mode, Test & Copy, Accurat

TOC of the extracted CD

Track | Start | Length | Start sector | End sector --------------------------------------------------------- 1 | 0:00.00 | 7:57.52 | 0 | 35826 2 | 7:57.52 | 4:32.33 | 35827 | 56259 3 | 12:30.10 | 8:04.12 | 56260 | 92571 4 | 20:34.22 | 7:12.03 | 92572 | 124974 5 | 27:46.25 | 10:59.17 | 124975 | 174416 6 | 38:45.42 | 4:32.58 | 174417 | 194874

Track 1

Filename E:\Booker Ervin - That's It (1989) [FLAC] {Candid CCD 79014}\01 - Mojo.wav

Pre-gap length 0:00:02.00

Peak level 65.8 % Track quality 100.0 % Test CRC C107BB44 Copy CRC C107BB44 Track not present in AccurateRip database Copy OK

Track 2

Filename E:\Booker Ervin - That's It (1989) [FLAC] {Candid CCD 79014}\02 - Uranus.wav

Peak level 52.9 % Track quality 100.0 % Test CRC 4EE7E6BC Copy CRC 4EE7E6BC Track not present in AccurateRip database Copy OK

Track 3

Filename E:\Booker Ervin - That's It (1989) [FLAC] {Candid CCD 79014}\03 - Poinciana.wav

Peak level 75.4 % Track quality 99.9 % Test CRC 3B659AA0 Copy CRC 3B659AA0 Track not present in AccurateRip database Copy OK

Track 4

Filename E:\Booker Ervin - That's It (1989) [FLAC] {Candid CCD 79014}\04 - Speak Low.wav

Peak level 74.8 % Track quality 99.9 % Test CRC D9A349E1 Copy CRC D9A349E1 Track not present in AccurateRip database Copy OK

Track 5

Filename E:\Booker Ervin - That's It (1989) [FLAC] {Candid CCD 79014}\05 - Booker's Blues.wav

Peak level 57.5 % Track quality 100.0 % Test CRC 0CE18FFD Copy CRC 0CE18FFD Track not present in AccurateRip database Copy OK

Track 6

Filename E:\Booker Ervin - That's It (1989) [FLAC] {Candid CCD 79014}\06 - Boo.wav

Peak level 61.5 % Track quality 100.0 % Test CRC 96B0C90A Copy CRC 96B0C90A Track not present in AccurateRip database Copy OK

None of the tracks are present in the AccurateRip database

No errors occurred

End of status report
 
REM GENRE JazzREM DATE 1989REM DISCID 530A2606REM COMMENT "ExactAudioCopy v0.99pb4"PERFORMER "Booker Ervin"TITLE "That's It"FILE "01 - Mojo.flac" WAVE TRACK 01 AUDIO TITLE "Mojo" PERFORMER "Booker Ervin" FLAGS PRE INDEX 01 00:00:00FILE "02 - Uranus.flac" WAVE TRACK 02 AUDIO TITLE "Uranus" PERFORMER "Booker Ervin" FLAGS PRE INDEX 01 00:00:00FILE "03 - Poinciana.flac" WAVE TRACK 03 AUDIO TITLE "Poinciana" PERFORMER "Booker Ervin" FLAGS PRE INDEX 01 00:00:00FILE "04 - Speak Low.flac" WAVE TRACK 04 AUDIO TITLE "Speak Low" PERFORMER "Booker Ervin" FLAGS PRE INDEX 01 00:00:00FILE "05 - Booker's Blues.flac" WAVE TRACK 05 AUDIO TITLE "Booker's Blues" PERFORMER "Booker Ervin" FLAGS PRE INDEX 01 00:00:00FILE "06 - Boo.flac" WAVE TRACK 06 AUDIO TITLE "Boo" PERFORMER "Booker Ervin" FLAGS PRE INDEX 01 00:00:00
 
-----------------------

DON'T MODIFY THIS FILE

-----------------------

PERFORMER: auCDtect Task Manager, ver. 1.5.1RC6 build 1.5.1.7Copyright (c) 2008-2010 y-soft. All rights reservedhttp://y-soft.org

ANALYZER: auCDtect: CD records authenticity detector, version 0.8.2Copyright (c) 2004 Oleg Berngardt. All rights reserved.Copyright (c) 2004 Alexander Djourik. All rights reserved.

FILE: 06 - Boo.flac Size: 31798060 Hash: E8DB465978049900F44CE51E59F382B4 Accuracy: -m0 Conclusion: CDDA 100% Signature: 8DD84901A46537C40A3DFD0369DE35702C82B4B4FILE: 05 - Booker's Blues.flac Size: 66194301 Hash: 48F80697089EEC8AB8BAC7ADEBEA1F99 Accuracy: -m0 Conclusion: CDDA 100% Signature: 1965A39F7EC1EBFBDC46D0167641C3603FA8E1CBFILE: 04 - Speak Low.flac Size: 53122985 Hash: DF2D8E423C8960AB8C2697A8F39ED474 Accuracy: -m0 Conclusion: CDDA 100% Signature: B0A9CE83056CE1399D3E8CD3D66ABCF021DF2E56FILE: 03 - Poinciana.flac Size: 55587970 Hash: BBA8DE23705ED37FD60FE58FB0C3F9E9 Accuracy: -m0 Conclusion: CDDA 100% Signature: 9FAC78A51E632547E848D30A9FBB5FA51690B838FILE: 02 - Uranus.flac Size: 27122107 Hash: 2D1A29552308DD26C26D0D9A46E1B968 Accuracy: -m0 Conclusion: CDDA 100% Signature: 12EBFB4F11FA0B35FEE3D192F4FDCEADC0DDF737FILE: 01 - Mojo.flac Size: 54504950 Hash: 02105097D326234D8515B25BF93255CF Accuracy: -m0 Conclusion: CDDA 100% Signature: 683C5C3FB19FB075C1806B13E5E0D8F68CC128BC
Booker Ervin (tenor saxophone)
Horace Parlan (piano)
George Tucker (double bass)
Al Harewood (drums)


Трекер:  [ 29-Янв-2012 17:01 ]

  

Скачать .torrent

Размер .torrent файла 12 KB


Размер: 288 MB
Хэш (hash) релиза: 40104f517a6cbae467ddac8a2c8432b473efc83a

Еще никто не оставлял запись к записи скачать торрент Booker Ervin - Thats It - . Будь первым!

!Обратная связь