Скачать через торрент музыку Don Braden - Gentle Storm - 2008, FLAC бесплатно без регистрации torrent

Если у вас наблюдаются проблемы со скриншотами, переходом по ссылками, скачиванием торрентов - проблемы в блокировщике рекламы AdBlock. #хорошегоДня!


Статистика раздачи
Размер:  361 MB   |    Зарегистрирован:  5 лет 8 месяцев   |    .torrent скачан:  21 раз   |   
Раздают:  1  
   
Загрузка...
 
Автор Сообщение

Umakiro

avatar Umakiro


Don Braden / Gentle Storm

Жанр: Post-Bop, Modern Creative, Saxophone Jazz
Страна-производитель диска: USA
Год издания диска: 2008
Издатель (лейбл): High Note Records
Номер по каталогу: HCD 7186
Страна: USA Cincinnati, OH
Аудиокодек: FLAC (*.flac)
Тип рипа: tracks+.cue
Битрейт аудио: lossless
Продолжительность: 00:57:58
Источник (релизер): wursthans
Наличие сканов в содержимом раздачи: да
Треклист:
01. Secret Love [05:57]
02. Gentle Storm [06:22]
03. Never Can Say Goodbye [06:19]
04. What Are You Doing The Rest Of Your Life [04:19]
05. This Masquerade [07:56]
06. The Hunter [04:50]
07. Willow Weep For Me [07:51]
08. Two Of A Kind [05:46]
09. My Foolish Heart [02:55]
10. Speed Ball [05:37]
 
Exact Audio Copy V0.99 prebeta 5 from 4. May 2009

EAC extraction logfile from 19. June 2009, 22:32

Don Braden / Gentle Storm

Used drive : PLEXTOR CD-R PREMIUM2 Adapter: 3 ID: 0

Read mode : SecureUtilize accurate stream : YesDefeat audio cache : YesMake use of C2 pointers : No

Read offset correction : 30Overread into Lead-In and Lead-Out : YesFill up missing offset samples with silence : YesDelete leading and trailing silent blocks : NoNull samples used in CRC calculations : YesUsed interface : Native Win32 interface for Win NT & 2000Gap handling : Appended to previous track

Used output format : User Defined EncoderSelected bitrate : 128 kBit/sQuality : HighAdd ID3 tag : NoCommand line compressor : D:\Programme\EAC099\Flac\flac.exeAdditional command line options : -5 -V -T "ARTIST=%a" -T "TITLE=%t" -T "ALBUM=%g" -T "DATE=%y" -T "TRACKNUMBER=%n" -T "TOTALTRACKS=%x" -T "GENRE=%m" -T "ALBUM ARTIST=%v" -T "ALBUMARTIST=%v" -T "COMMENT=EAC V0.99 prebeta 5, Secure Mode, Test & Copy, Accurat

TOC of the extracted CD

Track | Start | Length | Start sector | End sector --------------------------------------------------------- 1 | 0:00.00 | 5:59.67 | 0 | 26991 2 | 5:59.67 | 6:24.31 | 26992 | 55822 3 | 12:24.23 | 6:21.34 | 55823 | 84431 4 | 18:45.57 | 4:21.46 | 84432 | 104052 5 | 23:07.28 | 7:58.30 | 104053 | 139932 6 | 31:05.58 | 4:52.02 | 139933 | 161834 7 | 35:57.60 | 7:53.56 | 161835 | 197365 8 | 43:51.41 | 5:48.10 | 197366 | 223475 9 | 49:39.51 | 2:57.53 | 223476 | 236803 10 | 52:37.29 | 5:37.02 | 236804 | 262080

Track 1

Filename E:\Don Braden - Gentle Storm (2008) [FLAC] {High Note HCD 7186-2}\01 - Secret Love.wav

Pre-gap length 0:00:02.00

Peak level 97.7 % Track quality 100.0 % Test CRC 97A091D4 Copy CRC 97A091D4 Accurately ripped (confidence 2) [13DEDAD7] Copy OK

Track 2

Filename E:\Don Braden - Gentle Storm (2008) [FLAC] {High Note HCD 7186-2}\02 - Gentle Storm.wav

Pre-gap length 0:00:01.94

Peak level 97.7 % Track quality 100.0 % Test CRC 49143FC6 Copy CRC 49143FC6 Accurately ripped (confidence 2) [845A7A23] Copy OK

Track 3

Filename E:\Don Braden - Gentle Storm (2008) [FLAC] {High Note HCD 7186-2}\03 - Never Can Say Goodbye.wav

Pre-gap length 0:00:01.89

Peak level 97.7 % Track quality 100.0 % Test CRC F9C5E3E1 Copy CRC F9C5E3E1 Accurately ripped (confidence 2) [D54AFB0C] Copy OK

Track 4

Filename E:\Don Braden - Gentle Storm (2008) [FLAC] {High Note HCD 7186-2}\04 - What Are You Doing The Rest Of Your Life.wav

Pre-gap length 0:00:01.74

Peak level 97.7 % Track quality 100.0 % Test CRC E0D585E1 Copy CRC E0D585E1 Accurately ripped (confidence 2) [1F632CFD] Copy OK

Track 5

Filename E:\Don Braden - Gentle Storm (2008) [FLAC] {High Note HCD 7186-2}\05 - This Masquerade.wav

Pre-gap length 0:00:01.77

Peak level 97.7 % Track quality 100.0 % Test CRC 25CD0260 Copy CRC 25CD0260 Accurately ripped (confidence 2) [AC7B8B2F] Copy OK

Track 6

Filename E:\Don Braden - Gentle Storm (2008) [FLAC] {High Note HCD 7186-2}\06 - The Hunter.wav

Pre-gap length 0:00:01.68

Peak level 95.1 % Track quality 100.0 % Test CRC 3108E248 Copy CRC 3108E248 Accurately ripped (confidence 2) [13EA035D] Copy OK

Track 7

Filename E:\Don Braden - Gentle Storm (2008) [FLAC] {High Note HCD 7186-2}\07 - Willow Weep For Me.wav

Pre-gap length 0:00:01.78

Peak level 97.7 % Track quality 100.0 % Test CRC 92F152FC Copy CRC 92F152FC Accurately ripped (confidence 2) [B27AA72F] Copy OK

Track 8

Filename E:\Don Braden - Gentle Storm (2008) [FLAC] {High Note HCD 7186-2}\08 - Two Of A Kind.wav

Pre-gap length 0:00:01.76

Peak level 97.7 % Track quality 100.0 % Test CRC 556D28E1 Copy CRC 556D28E1 Accurately ripped (confidence 2) [C1F9FF50] Copy OK

Track 9

Filename E:\Don Braden - Gentle Storm (2008) [FLAC] {High Note HCD 7186-2}\09 - My Foolish Heart.wav

Pre-gap length 0:00:01.74

Peak level 87.6 % Track quality 100.0 % Test CRC 036AA787 Copy CRC 036AA787 Accurately ripped (confidence 2) [4A53BDEF] Copy OK

Track 10

Filename E:\Don Braden - Gentle Storm (2008) [FLAC] {High Note HCD 7186-2}\10 - Speed Ball.wav

Pre-gap length 0:00:01.72

Peak level 97.7 % Track quality 99.9 % Test CRC 8526CE75 Copy CRC 8526CE75 Accurately ripped (confidence 2) [7938B100] Copy OK

All tracks accurately ripped

No errors occurred

End of status report
 
REM GENRE Hard-BopREM DATE 2008REM DISCID 980DA60AREM COMMENT "ExactAudioCopy v0.99pb5"PERFORMER "Don Braden"TITLE "Gentle Storm"FILE "01 - Secret Love.flac" WAVE TRACK 01 AUDIO TITLE "Secret Love" PERFORMER "Don Braden" INDEX 01 00:00:00 TRACK 02 AUDIO TITLE "Gentle Storm" PERFORMER "Don Braden" INDEX 00 05:57:71FILE "02 - Gentle Storm.flac" WAVE INDEX 01 00:00:00 TRACK 03 AUDIO TITLE "Never Can Say Goodbye" PERFORMER "Don Braden" INDEX 00 06:22:39FILE "03 - Never Can Say Goodbye.flac" WAVE INDEX 01 00:00:00 TRACK 04 AUDIO TITLE "What Are You Doing The Rest Of Your Life" PERFORMER "Don Braden" INDEX 00 06:19:53FILE "04 - What Are You Doing The Rest Of Your Life.flac" WAVE INDEX 01 00:00:00 TRACK 05 AUDIO TITLE "This Masquerade" PERFORMER "Don Braden" INDEX 00 04:19:63FILE "05 - This Masquerade.flac" WAVE INDEX 01 00:00:00 TRACK 06 AUDIO TITLE "The Hunter" PERFORMER "Don Braden" INDEX 00 07:56:54FILE "06 - The Hunter.flac" WAVE INDEX 01 00:00:00 TRACK 07 AUDIO TITLE "Willow Weep For Me" PERFORMER "Don Braden" INDEX 00 04:50:18FILE "07 - Willow Weep For Me.flac" WAVE INDEX 01 00:00:00 TRACK 08 AUDIO TITLE "Two Of A Kind" PERFORMER "Don Braden" INDEX 00 07:51:74FILE "08 - Two Of A Kind.flac" WAVE INDEX 01 00:00:00 TRACK 09 AUDIO TITLE "My Foolish Heart" PERFORMER "Don Braden" INDEX 00 05:46:29FILE "09 - My Foolish Heart.flac" WAVE INDEX 01 00:00:00 TRACK 10 AUDIO TITLE "Speed Ball" PERFORMER "Don Braden" INDEX 00 02:55:74FILE "10 - Speed Ball.flac" WAVE INDEX 01 00:00:00
 
-----------------------

DON'T MODIFY THIS FILE

-----------------------

PERFORMER: auCDtect Task Manager, ver. 1.5.1RC6 build 1.5.1.7Copyright (c) 2008-2010 y-soft. All rights reservedhttp://y-soft.org

ANALYZER: auCDtect: CD records authenticity detector, version 0.8.2Copyright (c) 2004 Oleg Berngardt. All rights reserved.Copyright (c) 2004 Alexander Djourik. All rights reserved.

FILE: 10 - Speed Ball.flac Size: 38660709 Hash: 78002D64C1AAF25C1D3795224175C615 Accuracy: -m0 Conclusion: CDDA 99% Signature: 8FC2E98CF516C8997F3B9BC69E4925BEB9F7F0A4FILE: 09 - My Foolish Heart.flac Size: 13452812 Hash: BF7A3D34B376A4E886C96853E2B88DF5 Accuracy: -m0 Conclusion: CDDA 100% Signature: 8BC82829CF3FFCABA7EF8DD1979A3BECBAD2E23CFILE: 08 - Two Of A Kind.flac Size: 38389631 Hash: 18D796CD96BA120525D63D431F223900 Accuracy: -m0 Conclusion: CDDA 100% Signature: 8AFB7722C680B5DB2BE68DA7A38767F75BE5D51EFILE: 07 - Willow Weep For Me.flac Size: 47410658 Hash: E4FDDCA07B1F1CC6483DA86CFE2585AD Accuracy: -m0 Conclusion: CDDA 100% Signature: 9E337C4A56D60914821073E41A94F4D149AB12DFFILE: 06 - The Hunter.flac Size: 24410773 Hash: 775101BD7C3D9B31D42EE01D599F70DF Accuracy: -m0 Conclusion: CDDA 100% Signature: EDE9AF647A944994E90ED9080EE04CD186585A70FILE: 05 - This Masquerade.flac Size: 52633346 Hash: C4F0DACB4539F618619A6F686F342217 Accuracy: -m0 Conclusion: CDDA 99% Signature: 55FEB62C732A379DE2E1761B261C0F687F61EAEFFILE: 04 - What Are You Doing The Rest Of Your Life.flac Size: 21691290 Hash: 75847C9E2268FC2C9F0EAFA41F61C3DA Accuracy: -m0 Conclusion: MPEG 100% Signature: 2B14CA9CC52C282C2A8FD857601BC956828A5521FILE: 03 - Never Can Say Goodbye.flac Size: 40733534 Hash: A6510602F5A781CFCD4FAD1610B42020 Accuracy: -m0 Conclusion: CDDA 100% Signature: 34D1D7E0B7811D65E9CCC50AFD14D6D2EFDB325FFILE: 02 - Gentle Storm.flac Size: 39244516 Hash: 31C035ED8DD17276FEC82638CAE12E9C Accuracy: -m0 Conclusion: CDDA 100% Signature: BAB2F49B9FA789DC4ADD53E839DC06B46C9B0FC1FILE: 01 - Secret Love.flac Size: 41481721 Hash: D4A8C93376C2B37DC71ED2B27DE1EF9C Accuracy: -m0 Conclusion: CDDA 99% Signature: 9F6408675D11853A6353553FC89EAB3566D9F360
Don Braden (tenor saxophone & alto flute)
Joris Teepe (double bass)
George Colligan (piano)
Cecil Brooks III (drums)


Трекер:  [ 29-Янв-2012 17:00 ]

  

Скачать .torrent

Размер .torrent файла 15 KB


Размер: 361 MB
Хэш (hash) релиза: 6841316a7147b6ba9c0968acb735f481b2c95462

Еще никто не оставлял запись к записи скачать торрент Don Braden - Gentle Storm - 2008, FLAC . Будь первым!

!Обратная связь