Скачать через торрент музыку Jerry Bergonzi Quartet - Tilt! - 1991, FLAC бесплатно без регистрации torrent

Если у вас наблюдаются проблемы со скриншотами, переходом по ссылками, скачиванием торрентов - проблемы в блокировщике рекламы AdBlock. #хорошегоДня!


Статистика раздачи
Размер:  386 MB   |    Зарегистрирован:  5 лет 8 месяцев   |    .torrent скачан:  28 раз   |   
Раздают:  1  
   
Загрузка...
 
Автор Сообщение

Umakiro

avatar Umakiro


Jerry Bergonzi Quartet - Tilt!

Жанр: Bop, Post-Bop, Saxophone Jazz
Страна-производитель диска: Italy
Год издания диска: 1991
Издатель (лейбл): Red Records
Номер по каталогу: RR 123245-2
Страна: US Boston, MA
Аудиокодек: FLAC (*.flac)
Тип рипа: tracks+.cue
Битрейт аудио: lossless
Продолжительность: 01:03:10
Источник (релизер): wursthans
Наличие сканов в содержимом раздачи: да
01. Tilt [06:36]
02. On The Brink [08:14]
03. Tribute [05:57]
04. Jones [09:13]
05. Ischia [07:44]
06. Rainman [07:00]
07. Acireale [05:13]
08. Tilt (Take Two) [07:16]
09. Tribute (Take Two) [05:54]
 
Exact Audio Copy V0.99 prebeta 4 from 23. January 2008

EAC extraction logfile from 5. April 2009, 11:18

Jerry Bergonzi / Tilt

Used drive : PLEXTOR CD-R PREMIUM2 Adapter: 3 ID: 0

Read mode : SecureUtilize accurate stream : YesDefeat audio cache : YesMake use of C2 pointers : No

Read offset correction : 30Overread into Lead-In and Lead-Out : YesFill up missing offset samples with silence : YesDelete leading and trailing silent blocks : NoNull samples used in CRC calculations : YesUsed interface : Native Win32 interface for Win NT & 2000Gap handling : Appended to previous track

Used output format : User Defined EncoderSelected bitrate : 128 kBit/sQuality : HighAdd ID3 tag : NoCommand line compressor : D:\Programme\EAC099\Flac\flac.exeAdditional command line options : -5 -V -T "ARTIST=%a" -T "TITLE=%t" -T "ALBUM=%g" -T "DATE=%y" -T "TRACKNUMBER=%n" -T "TOTALTRACKS=%x" -T "GENRE=%m" -T "ALBUM ARTIST=%v" -T "ALBUMARTIST=%v" -T "COMMENT=EAC V0.99 prebeta 4, Secure Mode, Test & Copy, Accurat

TOC of the extracted CD

Track | Start | Length | Start sector | End sector --------------------------------------------------------- 1 | 0:00.33 | 6:36.47 | 33 | 29779 2 | 6:37.05 | 8:14.20 | 29780 | 66849 3 | 14:51.25 | 5:57.08 | 66850 | 93632 4 | 20:48.33 | 9:13.20 | 93633 | 135127 5 | 30:01.53 | 7:44.37 | 135128 | 169964 6 | 37:46.15 | 7:00.53 | 169965 | 201517 7 | 44:46.68 | 5:13.55 | 201518 | 225047 8 | 50:00.48 | 7:16.12 | 225048 | 257759 9 | 57:16.60 | 5:54.48 | 257760 | 284357

Track 1

Filename E:\Jerry Bergonzi - Tilt (1991) [FLAC] {Red Records RR 123245-2}\01 - Tilt.wav

Pre-gap length 0:00:02.44

Peak level 95.5 % Track quality 100.0 % Test CRC FAB70141 Copy CRC FAB70141 Track not present in AccurateRip database Copy OK

Track 2

Filename E:\Jerry Bergonzi - Tilt (1991) [FLAC] {Red Records RR 123245-2}\02 - On The Brink.wav

Peak level 84.5 % Track quality 100.0 % Test CRC B70F5234 Copy CRC B70F5234 Track not present in AccurateRip database Copy OK

Track 3

Filename E:\Jerry Bergonzi - Tilt (1991) [FLAC] {Red Records RR 123245-2}\03 - Tribute.wav

Peak level 76.9 % Track quality 100.0 % Test CRC 38577216 Copy CRC 38577216 Track not present in AccurateRip database Copy OK

Track 4

Filename E:\Jerry Bergonzi - Tilt (1991) [FLAC] {Red Records RR 123245-2}\04 - Jones.wav

Peak level 80.9 % Track quality 100.0 % Test CRC 3FFFA450 Copy CRC 3FFFA450 Track not present in AccurateRip database Copy OK

Track 5

Filename E:\Jerry Bergonzi - Tilt (1991) [FLAC] {Red Records RR 123245-2}\05 - Ischia.wav

Peak level 76.5 % Track quality 100.0 % Test CRC 555858B8 Copy CRC 555858B8 Track not present in AccurateRip database Copy OK

Track 6

Filename E:\Jerry Bergonzi - Tilt (1991) [FLAC] {Red Records RR 123245-2}\06 - Rainman.wav

Peak level 100.0 % Track quality 99.9 % Test CRC C63CBD98 Copy CRC C63CBD98 Track not present in AccurateRip database Copy OK

Track 7

Filename E:\Jerry Bergonzi - Tilt (1991) [FLAC] {Red Records RR 123245-2}\07 - Acireale.wav

Peak level 100.0 % Track quality 100.0 % Test CRC C95DDA67 Copy CRC C95DDA67 Track not present in AccurateRip database Copy OK

Track 8

Filename E:\Jerry Bergonzi - Tilt (1991) [FLAC] {Red Records RR 123245-2}\08 - Tilt (Take Two).wav

Peak level 82.0 % Track quality 100.0 % Test CRC ADD45FE5 Copy CRC ADD45FE5 Track not present in AccurateRip database Copy OK

Track 9

Filename E:\Jerry Bergonzi - Tilt (1991) [FLAC] {Red Records RR 123245-2}\09 - Tribute (Take Two).wav

Peak level 90.5 % Track quality 99.9 % Test CRC 97A2982B Copy CRC 97A2982B Track not present in AccurateRip database Copy OK

None of the tracks are present in the AccurateRip database

No errors occurred

End of status report
 
REM GENRE "Hard Bop"REM DATE 1991REM DISCID 800ECF09REM COMMENT "ExactAudioCopy v0.99pb4"PERFORMER "Jerry Bergonzi"TITLE "Tilt"FILE "01 - Tilt.flac" WAVE TRACK 01 AUDIO TITLE "Tilt" PERFORMER "Jerry Bergonzi" PREGAP 00:00:33 INDEX 01 00:00:00FILE "02 - On The Brink.flac" WAVE TRACK 02 AUDIO TITLE "On The Brink" PERFORMER "Jerry Bergonzi" INDEX 01 00:00:00FILE "03 - Tribute.flac" WAVE TRACK 03 AUDIO TITLE "Tribute" PERFORMER "Jerry Bergonzi" INDEX 01 00:00:00FILE "04 - Jones.flac" WAVE TRACK 04 AUDIO TITLE "Jones" PERFORMER "Jerry Bergonzi" INDEX 01 00:00:00FILE "05 - Ischia.flac" WAVE TRACK 05 AUDIO TITLE "Ischia" PERFORMER "Jerry Bergonzi" INDEX 01 00:00:00FILE "06 - Rainman.flac" WAVE TRACK 06 AUDIO TITLE "Rainman" PERFORMER "Jerry Bergonzi" INDEX 01 00:00:00FILE "07 - Acireale.flac" WAVE TRACK 07 AUDIO TITLE "Acireale" PERFORMER "Jerry Bergonzi" INDEX 01 00:00:00FILE "08 - Tilt (Take Two).flac" WAVE TRACK 08 AUDIO TITLE "Tilt (Take Two)" PERFORMER "Jerry Bergonzi" INDEX 01 00:00:00FILE "09 - Tribute (Take Two).flac" WAVE TRACK 09 AUDIO TITLE "Tribute (Take Two)" PERFORMER "Jerry Bergonzi" INDEX 01 00:00:00
 
-----------------------

DON'T MODIFY THIS FILE

-----------------------

PERFORMER: auCDtect Task Manager, ver. 1.5.1RC6 build 1.5.1.7Copyright (c) 2008-2010 y-soft. All rights reservedhttp://y-soft.org

ANALYZER: auCDtect: CD records authenticity detector, version 0.8.2Copyright (c) 2004 Oleg Berngardt. All rights reserved.Copyright (c) 2004 Alexander Djourik. All rights reserved.

FILE: 09 - Tribute (Take Two).flac Size: 36099499 Hash: 53D716C03564B05D6114840745E2F8F3 Accuracy: -m0 Conclusion: CDDA 99% Signature: 72D78CEFFF15EED2DB23DE13757AD6B474B5E821FILE: 08 - Tilt (Take Two).flac Size: 46571400 Hash: 63CA78A03C9ACDD1A29F086CA08D6E86 Accuracy: -m0 Conclusion: CDDA 99% Signature: E97C80070CA9FA898C15D731EEE2DA8987296C07FILE: 07 - Acireale.flac Size: 33501357 Hash: 1F4EC68974E35FE204E0B5CDFF5BDD43 Accuracy: -m0 Conclusion: CDDA 99% Signature: 2B1BD45E839FBBEF4502C722E99633CDA098076FFILE: 06 - Rainman.flac Size: 46181946 Hash: BEF143CF9920E2780751BE3EC3B54148 Accuracy: -m0 Conclusion: CDDA 99% Signature: 0C65B5BD960894109334B20F1F632BDC2823DDC9FILE: 05 - Ischia.flac Size: 49397682 Hash: 5135FD6F014CCB92BB9AD8055809E39B Accuracy: -m0 Conclusion: CDDA 100% Signature: 2CD1B86627A0148EFDA5C40CDB48EFA4121728BFFILE: 04 - Jones.flac Size: 58230508 Hash: BBA2152FE1ABA76FE09E716FAAB02582 Accuracy: -m0 Conclusion: CDDA 100% Signature: B0C5A0096FF25C4125560AEDC08E77492F6295CBFILE: 03 - Tribute.flac Size: 35690416 Hash: 51A0E6EDE7116DD85D34C10F70316FB3 Accuracy: -m0 Conclusion: CDDA 100% Signature: E10EF8706801419ED09530B1FA2A286A576C969BFILE: 02 - On The Brink.flac Size: 47284786 Hash: 25F8F68D563A8BF488E4484495077ADA Accuracy: -m0 Conclusion: CDDA 100% Signature: 53380AA22FE67A60824092B71372609ADBF3695EFILE: 01 - Tilt.flac Size: 41311148 Hash: 23D94C0D380623D0EB2C9A7E06BAE300 Accuracy: -m0 Conclusion: CDDA 100% Signature: 632A6E3D12D2B1E3C88AFE462BC6E240746A76E1FILE: 00 - Pregap.flac Size: 23626 Hash: FD0708C8F5DE8E349CDC15838F99E383 Accuracy: -m0 Conclusion: CDDA 100% Signature: 04C4FBE52DEC6907F52AAF8A480AE01625F5E737
Jerry Bergonzi (tenor sax)
Andy Laverne/Salvatore Bonafede* (piano)
Bruce Gertz (double bass)
Salvatore Tranchini (drums)


Трекер:  [ 29-Янв-2012 17:00 ]

  

Скачать .torrent

Размер .torrent файла 16 KB


Размер: 386 MB
Хэш (hash) релиза: 87a288f1c3a362704cf9604684d1e6fa8fc95abe

Еще никто не оставлял запись к записи скачать торрент Jerry Bergonzi Quartet - Tilt! - 1991, FLAC . Будь первым!

!Обратная связь