Скачать через торрент музыку Jesse Davis - First Insight - 1998, FLAC бесплатно без регистрации torrent

Если у вас наблюдаются проблемы со скриншотами, переходом по ссылками, скачиванием торрентов - проблемы в блокировщике рекламы AdBlock. #хорошегоДня!


Статистика раздачи
Размер:  394 MB   |    Зарегистрирован:  5 лет 8 месяцев   |    .torrent скачан:  24 раза   |   
Раздают:  1  
   
Загрузка...
 
Автор Сообщение

Umakiro

avatar Umakiro


Jesse Davis / First Insight

Жанр: Hard Bop, Saxophone Jazz
Страна-производитель диска: USA
Год издания диска: 1998
Издатель (лейбл): Concord Records
Номер по каталогу: CCD 4796-2
Страна: USA New Orleans, LA
Аудиокодек: FLAC (*.flac)
Тип рипа: tracks+.cue
Битрейт аудио: lossless
Продолжительность: 01:01:26
Источник (релизер): InFocus
Наличие сканов в содержимом раздачи: да
Треклист:
01. First Insight [04:49]
02. Nola [08:09]
03. Little R and R [07:23]
04. B.Y.O.G. [09:20]
05. Midnight Blue [06:54]
06. J's Idea [06:04]
07. Funny Thing [04:56]
08. Jetlagged [09:15]
09. Donkey Stomp [04:32]
 
X Lossless Decoder version 20090320 (105.1)

XLD extraction logfile from 2009-06-15 03:56:48 +0200

Jesse Davis / First Insight

Used drive : OPTIARC DVD RW AD-5630A (revision 1AHM)

Use cdparanoia mode : YES (CDParanoia III 10.2 engine)Disable audio cache : OK for the drive with cache less than 2750KBMake use of C2 pointers : NORead offset correction : 48Max retry count : 100

TOC of the extracted CD Track | Start | Length | Start sector | End sector --------------------------------------------------------- 1 | 00:00:00 | 04:49:12 | 0 | 21686 2 | 04:49:12 | 08:09:03 | 21687 | 58364 3 | 12:58:15 | 07:26:00 | 58365 | 91814 4 | 20:24:15 | 09:23:02 | 91815 | 134041 5 | 29:47:17 | 06:54:73 | 134042 | 165164 6 | 36:42:15 | 06:07:07 | 165165 | 192696 7 | 42:49:22 | 04:57:73 | 192697 | 215044 8 | 47:47:20 | 09:17:00 | 215045 | 256819 9 | 57:04:20 | 04:32:55 | 256820 | 277274

All Tracks Album gain : -2.55 dB Peak : 0.999756

Track 01 Filename : /Volumes/8-Jazz + altro/ Flac/Jesse Davis - First Insight (1998) [FLAC]/01 - First Insight.flac

Track gain : -1.22 dB Peak : 0.963837 CRC32 hash (test run) : 5C4914C6 CRC32 hash : 5C4914C6 CRC32 hash (skip zero) : 22C3CDD1 AccurateRip signature : 5321D77F ->Accurately ripped! (confidence 2) Statistics Read error : 0 Skipped (treated as error) : 0 Edge jitter error (maybe fixed) : 0 Atom jitter error (maybe fixed) : 0 Drift error (maybe fixed) : 0 Dropped bytes error (maybe fixed) : 0 Duplicated bytes error (maybe fixed) : 0 Inconsistency in error sectors : 0

Track 02 Filename : /Volumes/8-Jazz + altro/ Flac/Jesse Davis - First Insight (1998) [FLAC]/02 - Nola.flac

Track gain : -2.54 dB Peak : 0.973175 CRC32 hash (test run) : 30AEF176 CRC32 hash : 30AEF176 CRC32 hash (skip zero) : E31E8EE3 AccurateRip signature : E62F4A00 ->Accurately ripped! (confidence 2) Statistics Read error : 0 Skipped (treated as error) : 0 Edge jitter error (maybe fixed) : 0 Atom jitter error (maybe fixed) : 0 Drift error (maybe fixed) : 0 Dropped bytes error (maybe fixed) : 0 Duplicated bytes error (maybe fixed) : 0 Inconsistency in error sectors : 0

Track 03 Filename : /Volumes/8-Jazz + altro/ Flac/Jesse Davis - First Insight (1998) [FLAC]/03 - Little R and R.flac

Track gain : -0.95 dB Peak : 0.901276 CRC32 hash (test run) : 92BF4882 CRC32 hash : 92BF4882 CRC32 hash (skip zero) : 6EAF39E4 AccurateRip signature : 67197807 ->Accurately ripped! (confidence 2) Statistics Read error : 0 Skipped (treated as error) : 0 Edge jitter error (maybe fixed) : 0 Atom jitter error (maybe fixed) : 0 Drift error (maybe fixed) : 0 Dropped bytes error (maybe fixed) : 0 Duplicated bytes error (maybe fixed) : 0 Inconsistency in error sectors : 0

Track 04 Filename : /Volumes/8-Jazz + altro/ Flac/Jesse Davis - First Insight (1998) [FLAC]/04 - B.Y.O.G..flac

Track gain : -3.40 dB Peak : 0.997711 CRC32 hash (test run) : 6ADA4B2D CRC32 hash : 6ADA4B2D CRC32 hash (skip zero) : 47D2E354 AccurateRip signature : 7974DDF0 ->Accurately ripped! (confidence 2) Statistics Read error : 0 Skipped (treated as error) : 0 Edge jitter error (maybe fixed) : 0 Atom jitter error (maybe fixed) : 0 Drift error (maybe fixed) : 0 Dropped bytes error (maybe fixed) : 0 Duplicated bytes error (maybe fixed) : 0 Inconsistency in error sectors : 0

Track 05 Filename : /Volumes/8-Jazz + altro/ Flac/Jesse Davis - First Insight (1998) [FLAC]/05 - Midnight Blue.flac

Track gain : -0.57 dB Peak : 0.830536 CRC32 hash (test run) : EF51F016 CRC32 hash : EF51F016 CRC32 hash (skip zero) : 55EDD664 AccurateRip signature : E37972F7 ->Accurately ripped! (confidence 2) Statistics Read error : 0 Skipped (treated as error) : 0 Edge jitter error (maybe fixed) : 0 Atom jitter error (maybe fixed) : 0 Drift error (maybe fixed) : 0 Dropped bytes error (maybe fixed) : 0 Duplicated bytes error (maybe fixed) : 0 Inconsistency in error sectors : 0

Track 06 Filename : /Volumes/8-Jazz + altro/ Flac/Jesse Davis - First Insight (1998) [FLAC]/06 - J's Idea.flac

Track gain : -3.10 dB Peak : 0.999756 CRC32 hash (test run) : E4AB7C2A CRC32 hash : E4AB7C2A CRC32 hash (skip zero) : 9A4AE233 AccurateRip signature : 4BD06D2E ->Accurately ripped! (confidence 2) Statistics Read error : 0 Skipped (treated as error) : 0 Edge jitter error (maybe fixed) : 0 Atom jitter error (maybe fixed) : 0 Drift error (maybe fixed) : 0 Dropped bytes error (maybe fixed) : 0 Duplicated bytes error (maybe fixed) : 0 Inconsistency in error sectors : 0

Track 07 Filename : /Volumes/8-Jazz + altro/ Flac/Jesse Davis - First Insight (1998) [FLAC]/07 - Funny Thing.flac

Track gain : -1.25 dB Peak : 0.968018 CRC32 hash (test run) : CF8C03D8 CRC32 hash : CF8C03D8 CRC32 hash (skip zero) : 2E70D37B AccurateRip signature : 49A9F01B ->Accurately ripped! (confidence 2) Statistics Read error : 0 Skipped (treated as error) : 0 Edge jitter error (maybe fixed) : 0 Atom jitter error (maybe fixed) : 0 Drift error (maybe fixed) : 0 Dropped bytes error (maybe fixed) : 0 Duplicated bytes error (maybe fixed) : 0 Inconsistency in error sectors : 0

Track 08 Filename : /Volumes/8-Jazz + altro/ Flac/Jesse Davis - First Insight (1998) [FLAC]/08 - Jetlagged.flac

Track gain : -3.34 dB Peak : 0.980530 CRC32 hash (test run) : FD02FC83 CRC32 hash : FD02FC83 CRC32 hash (skip zero) : FBCCC97C AccurateRip signature : 409B599E ->Accurately ripped! (confidence 2) Statistics Read error : 0 Skipped (treated as error) : 0 Edge jitter error (maybe fixed) : 0 Atom jitter error (maybe fixed) : 0 Drift error (maybe fixed) : 0 Dropped bytes error (maybe fixed) : 0 Duplicated bytes error (maybe fixed) : 0 Inconsistency in error sectors : 0

Track 09 Filename : /Volumes/8-Jazz + altro/ Flac/Jesse Davis - First Insight (1998) [FLAC]/09 - Donkey Stomp.flac

Track gain : -2.46 dB Peak : 0.965881 CRC32 hash (test run) : E56353F0 CRC32 hash : E56353F0 CRC32 hash (skip zero) : 0D80448F AccurateRip signature : 899EA32E ->Accurately ripped! (confidence 2) Statistics Read error : 0 Skipped (treated as error) : 0 Edge jitter error (maybe fixed) : 0 Atom jitter error (maybe fixed) : 0 Drift error (maybe fixed) : 0 Dropped bytes error (maybe fixed) : 0 Duplicated bytes error (maybe fixed) : 0 Inconsistency in error sectors : 0

No errors occurred

End of status report
 
TITLE "First Insight"PERFORMER "Jesse Davis"REM GENRE "Jazz"REM DATE 1998FILE "01 - First Insight.wav" WAVE TRACK 01 AUDIO TITLE "First Insight" INDEX 01 00:00:00FILE "02 - Nola.wav" WAVE TRACK 02 AUDIO TITLE "Nola" INDEX 01 00:00:00FILE "03 - Little R and R.wav" WAVE TRACK 03 AUDIO TITLE "Little R and R" INDEX 01 00:00:00 TRACK 04 AUDIO TITLE "B.Y.O.G." INDEX 00 07:23:65FILE "04 - B.Y.O.G..wav" WAVE INDEX 01 00:00:00 TRACK 05 AUDIO TITLE "Midnight Blue" INDEX 00 09:20:57FILE "05 - Midnight Blue.wav" WAVE INDEX 01 00:00:00FILE "06 - J's Idea.wav" WAVE TRACK 06 AUDIO TITLE "J's Idea" INDEX 01 00:00:00 TRACK 07 AUDIO TITLE "Funny Thing" INDEX 00 06:04:40FILE "07 - Funny Thing.wav" WAVE INDEX 01 00:00:00 TRACK 08 AUDIO TITLE "Jetlagged" INDEX 00 04:56:15FILE "08 - Jetlagged.wav" WAVE INDEX 01 00:00:00 TRACK 09 AUDIO TITLE "Donkey Stomp" INDEX 00 09:15:00FILE "09 - Donkey Stomp.wav" WAVE INDEX 01 00:00:00
 
-----------------------

DON'T MODIFY THIS FILE

-----------------------

PERFORMER: auCDtect Task Manager, ver. 1.5.1RC6 build 1.5.1.7Copyright (c) 2008-2010 y-soft. All rights reservedhttp://y-soft.org

ANALYZER: auCDtect: CD records authenticity detector, version 0.8.2Copyright (c) 2004 Oleg Berngardt. All rights reserved.Copyright (c) 2004 Alexander Djourik. All rights reserved.

FILE: 09 - Donkey Stomp.flac Size: 31691368 Hash: 6CD59149D30AB8605AE063728C043029 Accuracy: -m0 Conclusion: CDDA 100% Signature: 7B2B039FA8362B0F83AA3829644EC4F99CC25D3AFILE: 08 - Jetlagged.flac Size: 63541263 Hash: 3E3915FBA6931CB45DFE483ED18E623D Accuracy: -m0 Conclusion: CDDA 100% Signature: E48FB00264E076606377DE8545E7DE56658D8EE8FILE: 07 - Funny Thing.flac Size: 31051257 Hash: 320F736BC6801CDE758B165D83F60166 Accuracy: -m0 Conclusion: CDDA 100% Signature: 6AC35A4D1E2B39A87F6A10D573DAC6C8206A8149FILE: 06 - J's Idea.flac Size: 41966646 Hash: 5FC7493F8EB253A2DEE89ACD3B389837 Accuracy: -m0 Conclusion: CDDA 100% Signature: 624F4D9DF30D46B12EF41D27202E309509E2F632FILE: 05 - Midnight Blue.flac Size: 38172725 Hash: 1CFA1E9A1EFE96F7EF3E10EC856B59B7 Accuracy: -m0 Conclusion: CDDA 100% Signature: E354A10A8B6564B1EF8C38715CEBC99A46F89514FILE: 04 - B.Y.O.G..flac Size: 66033335 Hash: 0FA49AD325813363FBEBF58E0F55C963 Accuracy: -m0 Conclusion: CDDA 100% Signature: 043DF86C48A3FBAAA6277E16FEB9415FFF07C735FILE: 03 - Little R and R.flac Size: 47197389 Hash: D051FE6F2531A06D3CAF436ED5B58122 Accuracy: -m0 Conclusion: CDDA 100% Signature: 25E7407E99F6EB746DA25FAF8155530806CE47F0FILE: 02 - Nola.flac Size: 51719410 Hash: 2165BAD37F772531002D8915252A80BC Accuracy: -m0 Conclusion: CDDA 100% Signature: 334911E143A80A7520BFD348DE4EC730BB5E7D23FILE: 01 - First Insight.flac Size: 29537349 Hash: D15C26C9DD7FBDEC036F0E75EDD12691 Accuracy: -m0 Conclusion: CDDA 100% Signature: B533041DB3542E251C39089ADCC2736D1D4394F7
Jesse Davis (Arranger, Sax (Alto));
Peter Bernstein (Guitar);
Mulgrew Miller (Piano);
Ron Carter (Bass);
Kenny Washington (Drums).


Трекер:  [ 29-Янв-2012 17:00 ]

  

Скачать .torrent

Размер .torrent файла 16 KB


Размер: 394 MB
Хэш (hash) релиза: 6fbe115e504cb9f240bf6b37d9fcc071e0e3957c

Еще никто не оставлял запись к записи скачать торрент Jesse Davis - First Insight - 1998, FLAC . Будь первым!

!Обратная связь