Скачать через торрент музыку Nicolas Simion Group - Black Sea - 1992, FLAC бесплатно без регистрации torrent

Если у вас наблюдаются проблемы со скриншотами, переходом по ссылками, скачиванием торрентов - проблемы в блокировщике рекламы AdBlock. #хорошегоДня!


Статистика раздачи
Размер:  351 MB   |    Зарегистрирован:  5 лет 8 месяцев   |    .torrent скачан:  13 раз   |   
Раздают:  1  
   
Загрузка...
 
Автор Сообщение

Umakiro

avatar Umakiro


Nicolas Simion Group / Black Sea

Жанр: Post-Bop, Modern Free, Saxophone Jazz
Страна-производитель диска: Germany
Год издания диска: 1992
Издатель (лейбл): Tutu Records
Номер по каталогу: CD 888 134
Страна: Dumbravita, Romania
Аудиокодек: FLAC (*.flac)
Тип рипа: tracks+.cue
Битрейт аудио: lossless
Продолжительность: 00:53:25
Источник (релизер): wursthans
Наличие сканов в содержимом раздачи: да
Треклист:
01. Black Sea [07:22]
02. Blues For Bird [05:49]
03. Africa [08:21]
04. Red [06:38]
05. Song For Leo (dedicated to Leo Wright) [08:08]
06. Solomon [08:48]
07. Mr. McCoy [08:17]
 
Exact Audio Copy V0.99 prebeta 5 from 4. May 2009

EAC extraction logfile from 12. June 2009, 23:27

Nicolas Simion Group / Black Sea

Used drive : PLEXTOR CD-R PREMIUM2 Adapter: 3 ID: 0

Read mode : SecureUtilize accurate stream : YesDefeat audio cache : YesMake use of C2 pointers : No

Read offset correction : 30Overread into Lead-In and Lead-Out : YesFill up missing offset samples with silence : YesDelete leading and trailing silent blocks : NoNull samples used in CRC calculations : YesUsed interface : Native Win32 interface for Win NT & 2000Gap handling : Appended to previous track

Used output format : User Defined EncoderSelected bitrate : 128 kBit/sQuality : HighAdd ID3 tag : NoCommand line compressor : D:\Programme\EAC099\Flac\flac.exeAdditional command line options : -5 -V -T "ARTIST=%a" -T "TITLE=%t" -T "ALBUM=%g" -T "DATE=%y" -T "TRACKNUMBER=%n" -T "TOTALTRACKS=%x" -T "GENRE=%m" -T "ALBUM ARTIST=%v" -T "ALBUMARTIST=%v" -T "COMMENT=EAC V0.99 prebeta 5, Secure Mode, Test & Copy, Accurat

TOC of the extracted CD

Track | Start | Length | Start sector | End sector --------------------------------------------------------- 1 | 0:00.00 | 7:28.50 | 0 | 33649 2 | 7:28.50 | 5:52.55 | 33650 | 60104 3 | 13:21.30 | 8:24.42 | 60105 | 97946 4 | 21:45.72 | 6:42.15 | 97947 | 128111 5 | 28:28.12 | 8:11.53 | 128112 | 164989 6 | 36:39.65 | 8:52.47 | 164990 | 204936 7 | 45:32.37 | 8:17.13 | 204937 | 242224

Track 1

Filename E:\Nicolas Simion Group - Black Sea (1992) [FLAC]\01 - Black Sea.wav

Pre-gap length 0:00:02.00

Peak level 99.9 % Track quality 100.0 % Test CRC 54FF1838 Copy CRC 54FF1838 Track not present in AccurateRip database Copy OK

Track 2

Filename E:\Nicolas Simion Group - Black Sea (1992) [FLAC]\02 - Blues For Bird.wav

Pre-gap length 0:00:06.57

Peak level 93.8 % Track quality 100.0 % Test CRC 538BC986 Copy CRC 538BC986 Track not present in AccurateRip database Copy OK

Track 3

Filename E:\Nicolas Simion Group - Black Sea (1992) [FLAC]\03 - Africa.wav

Pre-gap length 0:00:03.00

Peak level 100.0 % Track quality 100.0 % Test CRC 4DD59AB6 Copy CRC 4DD59AB6 Track not present in AccurateRip database Copy OK

Track 4

Filename E:\Nicolas Simion Group - Black Sea (1992) [FLAC]\04 - Red.wav

Pre-gap length 0:00:03.42

Peak level 99.2 % Track quality 100.0 % Test CRC AD526CA9 Copy CRC AD526CA9 Track not present in AccurateRip database Copy OK

Track 5

Filename E:\Nicolas Simion Group - Black Sea (1992) [FLAC]\05 - Song For Leo (dedicated to Leo Wright).wav

Pre-gap length 0:00:03.80

Peak level 73.0 % Track quality 100.0 % Test CRC 39CB31F8 Copy CRC 39CB31F8 Track not present in AccurateRip database Copy OK

Track 6

Filename E:\Nicolas Simion Group - Black Sea (1992) [FLAC]\06 - Solomon.wav

Pre-gap length 0:00:02.93

Peak level 81.1 % Track quality 99.9 % Test CRC 452C14BA Copy CRC 452C14BA Track not present in AccurateRip database Copy OK

Track 7

Filename E:\Nicolas Simion Group - Black Sea (1992) [FLAC]\07 - Mr. McCoy.wav

Pre-gap length 0:00:04.06

Peak level 99.2 % Track quality 100.0 % Test CRC BE0808FE Copy CRC BE0808FE Track not present in AccurateRip database Copy OK

None of the tracks are present in the AccurateRip database

No errors occurred

End of status report
 
REM GENRE "Post Bop"REM DATE 1992REM DISCID 3F0C9D07REM COMMENT "ExactAudioCopy v0.99pb5"PERFORMER "Nicolas Simion Group"TITLE "Black Sea"FILE "01 - Black Sea.flac" WAVE TRACK 01 AUDIO TITLE "Black Sea" PERFORMER "Nicolas Simion Group" FLAGS PRE INDEX 01 00:00:00 TRACK 02 AUDIO TITLE "Blues For Bird" PERFORMER "Nicolas Simion Group" FLAGS PRE INDEX 00 07:22:07FILE "02 - Blues For Bird.flac" WAVE INDEX 01 00:00:00 TRACK 03 AUDIO TITLE "Africa" PERFORMER "Nicolas Simion Group" FLAGS PRE INDEX 00 05:49:55FILE "03 - Africa.flac" WAVE INDEX 01 00:00:00 TRACK 04 AUDIO TITLE "Red" PERFORMER "Nicolas Simion Group" FLAGS PRE INDEX 00 08:21:10FILE "04 - Red.flac" WAVE INDEX 01 00:00:00 TRACK 05 AUDIO TITLE "Song For Leo (dedicated to Leo Wright)" PERFORMER "Nicolas Simion Group" FLAGS PRE INDEX 00 06:38:30FILE "05 - Song For Leo (dedicated to Leo Wright).flac" WAVE INDEX 01 00:00:00 TRACK 06 AUDIO TITLE "Solomon" PERFORMER "Nicolas Simion Group" FLAGS PRE INDEX 00 08:08:58FILE "06 - Solomon.flac" WAVE INDEX 01 00:00:00 TRACK 07 AUDIO TITLE "Mr. McCoy" PERFORMER "Nicolas Simion Group" FLAGS PRE INDEX 00 08:48:42FILE "07 - Mr. McCoy.flac" WAVE INDEX 01 00:00:00
Nicolas Simion (soprano & tenor saxophone)
Graham Haynes (cornet)
Lonnie Plaxico (double bass)
Ronnie Burrage (drums)
Ron Burton (piano on Mr. McCoy)


Трекер:  [ 29-Янв-2012 17:00 ]

  

Скачать .torrent

Размер .torrent файла 15 KB


Размер: 351 MB
Хэш (hash) релиза: 6e00091373e18bf914d900ffd819ec2611bb4326

Еще никто не оставлял запись к записи скачать торрент Nicolas Simion Group - Black Sea - 1992, FLAC . Будь первым!

!Обратная связь