Скачать через торрент музыку Joe Lovano Quartet - Tones Shapes & Colors - 1986, FLAC бесплатно без регистрации torrent

Если у вас наблюдаются проблемы со скриншотами, переходом по ссылками, скачиванием торрентов - проблемы в блокировщике рекламы AdBlock. #хорошегоДня!


Статистика раздачи
Размер:  322 MB   |    Зарегистрирован:  5 лет 8 месяцев   |    .torrent скачан:  27 раз   |   
Раздают:  1  
   
Загрузка...
 
Автор Сообщение

Umakiro

avatar Umakiro


Joe Lovano Quartet / Tones Shapes & Colors

Жанр: Post-Bop, Saxophone Jazz
Страна-производитель диска: Italy
Год издания диска: 1986
Издатель (лейбл): Soul Note
Номер по каталогу: 121132-2
Страна: US Cleveland, OH
Аудиокодек: FLAC (*.flac)
Тип рипа: tracks+.cue
Битрейт аудио: lossless
Продолжительность: 01:01:01
Источник (релизер): wursthans
Наличие сканов в содержимом раздачи: да
Треклист:
01. Chess Mates [09:00]
02. Compensation [12:41]
03. La Louisiane [04:21]
04. Tones, Shapes And Colors [05:37]
05. Ballad For Trane [10:39]
06. In The Jazz Community [09:52]
07. Nocturne [07:49]
 
Exact Audio Copy V0.99 prebeta 5 from 4. May 2009

EAC extraction logfile from 28. November 2009, 19:59

Joe Lovano Quartet / Tones Shapes & Colors

Used drive : HL-DT-STDVD-RAM GH22LS30 Adapter: 1 ID: 0

Read mode : SecureUtilize accurate stream : YesDefeat audio cache : YesMake use of C2 pointers : No

Read offset correction : 102Overread into Lead-In and Lead-Out : YesFill up missing offset samples with silence : YesDelete leading and trailing silent blocks : NoNull samples used in CRC calculations : YesUsed interface : Native Win32 interface for Win NT & 2000Gap handling : Appended to previous track

Used output format : User Defined EncoderSelected bitrate : 128 kBit/sQuality : HighAdd ID3 tag : NoCommand line compressor : D:\Programme\EAC099\Flac\flac.exeAdditional command line options : -5 -V -T "ARTIST=%a" -T "TITLE=%t" -T "ALBUM=%g" -T "DATE=%y" -T "TRACKNUMBER=%n" -T "TOTALTRACKS=%x" -T "GENRE=%m" -T "ALBUM ARTIST=%v" -T "ALBUMARTIST=%v" -T "COMMENT=EAC V0.99 prebeta 5, Secure Mode, Test & Copy, Accurat

TOC of the extracted CD

Track | Start | Length | Start sector | End sector --------------------------------------------------------- 1 | 0:00.33 | 9:06.00 | 33 | 40982 2 | 9:06.33 | 12:45.10 | 40983 | 98367 3 | 21:51.43 | 4:23.52 | 98368 | 118144 4 | 26:15.20 | 5:38.18 | 118145 | 143512 5 | 31:53.38 | 10:41.30 | 143513 | 191617 6 | 42:34.68 | 9:55.60 | 191618 | 236302 7 | 52:30.53 | 7:49.52 | 236303 | 271529

Track 1

Filename E:\Share\Jazz\K-O\Joe Lovano Quartet - Tones Shapes & Colors (1986) [FLAC] {Soul Note 121132-2}\01 - Chess Mates.wav

Pre-gap length 0:00:02.44

Peak level 100.0 % Track quality 100.0 % Test CRC 8ABDC7D5 Copy CRC 8ABDC7D5 Track not present in AccurateRip database Copy OK

Track 2

Filename E:\Share\Jazz\K-O\Joe Lovano Quartet - Tones Shapes & Colors (1986) [FLAC] {Soul Note 121132-2}\02 - Compensation.wav

Pre-gap length 0:00:05.86

Peak level 84.0 % Track quality 100.0 % Test CRC EC9C86B9 Copy CRC EC9C86B9 Track not present in AccurateRip database Copy OK

Track 3

Filename E:\Share\Jazz\K-O\Joe Lovano Quartet - Tones Shapes & Colors (1986) [FLAC] {Soul Note 121132-2}\03 - La Louisiane.wav

Pre-gap length 0:00:03.73

Peak level 89.1 % Track quality 100.0 % Test CRC F987EA37 Copy CRC F987EA37 Track not present in AccurateRip database Copy OK

Track 4

Filename E:\Share\Jazz\K-O\Joe Lovano Quartet - Tones Shapes & Colors (1986) [FLAC] {Soul Note 121132-2}\04 - Tones, Shapes And Colors.wav

Pre-gap length 0:00:01.93

Peak level 89.5 % Track quality 100.0 % Test CRC DCB64199 Copy CRC DCB64199 Track not present in AccurateRip database Copy OK

Track 5

Filename E:\Share\Jazz\K-O\Joe Lovano Quartet - Tones Shapes & Colors (1986) [FLAC] {Soul Note 121132-2}\05 - Ballad For Trane.wav

Pre-gap length 0:00:00.97

Peak level 100.0 % Track quality 100.0 % Test CRC 07235CD8 Copy CRC 07235CD8 Track not present in AccurateRip database Copy OK

Track 6

Filename E:\Share\Jazz\K-O\Joe Lovano Quartet - Tones Shapes & Colors (1986) [FLAC] {Soul Note 121132-2}\06 - In The Jazz Community.wav

Pre-gap length 0:00:02.30

Peak level 98.3 % Track quality 100.0 % Test CRC C48EA04B Copy CRC C48EA04B Track not present in AccurateRip database Copy OK

Track 7

Filename E:\Share\Jazz\K-O\Joe Lovano Quartet - Tones Shapes & Colors (1986) [FLAC] {Soul Note 121132-2}\07 - Nocturne.wav

Pre-gap length 0:00:03.33

Peak level 65.9 % Track quality 100.0 % Test CRC F1892C3A Copy CRC F1892C3A Track not present in AccurateRip database Copy OK

None of the tracks are present in the AccurateRip database

No errors occurred

End of status report
 
REM GENRE "Post Bop"REM DATE 1986REM DISCID 5C0E2407REM COMMENT "ExactAudioCopy v0.99pb5"PERFORMER "Joe Lovano Quartet"TITLE "Tones Shapes & Colors"FILE "01 - Chess Mates.wav" WAVE TRACK 01 AUDIO TITLE "Chess Mates" PERFORMER "Joe Lovano Quartet" PREGAP 00:00:33 INDEX 01 00:00:00 TRACK 02 AUDIO TITLE "Compensation" PERFORMER "Joe Lovano Quartet" INDEX 00 09:00:10FILE "02 - Compensation.wav" WAVE INDEX 01 00:00:00 TRACK 03 AUDIO TITLE "La Louisiane" PERFORMER "Joe Lovano Quartet" INDEX 00 12:41:30FILE "03 - La Louisiane.wav" WAVE INDEX 01 00:00:00 TRACK 04 AUDIO TITLE "Tones, Shapes And Colors" PERFORMER "Joe Lovano Quartet" INDEX 00 04:21:57FILE "04 - Tones, Shapes And Colors.wav" WAVE INDEX 01 00:00:00 TRACK 05 AUDIO TITLE "Ballad For Trane" PERFORMER "Joe Lovano Quartet" INDEX 00 05:37:20FILE "05 - Ballad For Trane.wav" WAVE INDEX 01 00:00:00 TRACK 06 AUDIO TITLE "In The Jazz Community" PERFORMER "Joe Lovano Quartet" INDEX 00 10:39:07FILE "06 - In The Jazz Community.wav" WAVE INDEX 01 00:00:00 TRACK 07 AUDIO TITLE "Nocturne" PERFORMER "Joe Lovano Quartet" INDEX 00 09:52:35FILE "07 - Nocturne.wav" WAVE INDEX 01 00:00:00
Joe Lovano (tenor saxophone, gongs)
Kenny Werner (piano)
Dennis Irwin (double bass)
Mel Lewis (drums)


Трекер:  [ 29-Янв-2012 16:59 ]

  

Скачать .torrent

Размер .torrent файла 14 KB


Размер: 322 MB
Хэш (hash) релиза: 2cc560661fda801673f3d94987449ee6edfd3523

Еще никто не оставлял запись к записи скачать торрент Joe Lovano Quartet - Tones Shapes & Colors - 1986, FLAC . Будь первым!

!Обратная связь