Скачать через торрент музыку Duke Jordan - Flight to Jordan - бесплатно без регистрации torrent

Если у вас наблюдаются проблемы со скриншотами, переходом по ссылками, скачиванием торрентов - проблемы в блокировщике рекламы AdBlock. #хорошегоДня!


Статистика раздачи
Размер:  288 MB   |    Зарегистрирован:  5 лет 8 месяцев   |    .torrent скачан:  26 раз   |   
Раздают:  1  
   
Загрузка...
 
Автор Сообщение

Umakiro

avatar Umakiro


Duke Jordan / Flight to Jordan

Жанр: Bop, Hard Bop, Piano Jazz
Страна-производитель диска: USA
Год издания диска: (1961) - 2011
Издатель (лейбл): Blue Note/Analogue Productions
Номер по каталогу: (ST-84046) CBNJ 84046 SA
Страна: US New York, NY
Аудиокодек: FLAC (*.flac)
Тип рипа: tracks+.cue
Битрейт аудио: lossless
Продолжительность: 00:47:59
Источник (релизер): Bezz
Наличие сканов в содержимом раздачи: да
Треклист:
01. Flight To Jordan [05:32]
02. Starbrite [07:47]
03. Squawkin' [04:58]
04. Deacon Joe [08:41]
05. Split Quick [05:11]
06. Si-Joya [06:46]
07. Diamond Stud (Bonus Track) [05:03]
08. I Should Care (Bonus Track) [03:58]
 
Exact Audio Copy V1.0 beta 1 from 15. November 2010

EAC extraction logfile from 10. August 2011, 10:41

Duke Jordan / Flight To Jordan

Used drive : MATSHITAUJ-842D Adapter: 0 ID: 0

Read mode : SecureUtilize accurate stream : YesDefeat audio cache : YesMake use of C2 pointers : No

Read offset correction : 102Overread into Lead-In and Lead-Out : NoFill up missing offset samples with silence : YesDelete leading and trailing silent blocks : NoNull samples used in CRC calculations : YesUsed interface : Native Win32 interface for Win NT & 2000Gap handling : Appended to previous track

Used output format : User Defined EncoderSelected bitrate : 128 kBit/sQuality : HighAdd ID3 tag : NoCommand line compressor : C:\Program Files\FLAC\flac.exeAdditional command line options : -8 -V -T "ARTIST=%a" -T "TITLE=%t" -T "ALBUM=%g" -T "DATE=%y" -T "TRACKNUMBER=%n" -T "TOTALTRACKS=%x" -T "GENRE=%m" -T "ALBUM ARTIST=%v" -T "ALBUMARTIST=%v" -T "COMMENT=L2Bits, EAC V1.0 beta 1, Secure Mode, Test & Copy, Acc

TOC of the extracted CD

Track | Start | Length | Start sector | End sector --------------------------------------------------------- 1 | 0:00.00 | 5:33.14 | 0 | 24988 2 | 5:33.14 | 7:48.74 | 24989 | 60162 3 | 13:22.13 | 5:00.51 | 60163 | 82713 4 | 18:22.64 | 8:44.60 | 82714 | 122073 5 | 27:07.49 | 5:12.57 | 122074 | 145530 6 | 32:20.31 | 6:47.07 | 145531 | 176062 7 | 39:07.38 | 5:05.26 | 176063 | 198963 8 | 44:12.64 | 3:58.49 | 198964 | 216862

Track 1

Filename D:\Bezz Rip\01 - Flight To Jordan - Flight To Jordan.wav

Pre-gap length 0:00:02.00

Peak level 81.0 % Extraction speed 0.9 X Track quality 100.0 % Test CRC FD7F3CF1 Copy CRC FD7F3CF1 Track not present in AccurateRip database Copy OK

Track 2

Filename D:\Bezz Rip\02 - Flight To Jordan - Starbrite.wav

Pre-gap length 0:00:01.14

Peak level 84.8 % Extraction speed 1.0 X Track quality 100.0 % Test CRC 9918511A Copy CRC 9918511A Track not present in AccurateRip database Copy OK

Track 3

Filename D:\Bezz Rip\03 - Flight To Jordan - Squawkin'.wav

Pre-gap length 0:00:01.40

Peak level 85.6 % Extraction speed 1.0 X Track quality 100.0 % Test CRC 881F3073 Copy CRC 881F3073 Track not present in AccurateRip database Copy OK

Track 4

Filename D:\Bezz Rip\04 - Flight To Jordan - Deacon Joe.wav

Pre-gap length 0:00:01.71

Peak level 77.6 % Extraction speed 1.1 X Track quality 100.0 % Test CRC 2574F56C Copy CRC 2574F56C Track not present in AccurateRip database Copy OK

Track 5

Filename D:\Bezz Rip\05 - Flight To Jordan - Split Quick.wav

Pre-gap length 0:00:03.19

Peak level 82.9 % Extraction speed 1.1 X Track quality 100.0 % Test CRC 72DEF714 Copy CRC 72DEF714 Track not present in AccurateRip database Copy OK

Track 6

Filename D:\Bezz Rip\06 - Flight To Jordan - Si-Joya.wav

Pre-gap length 0:00:01.34

Peak level 88.0 % Extraction speed 1.1 X Track quality 99.9 % Test CRC 3508F660 Copy CRC 3508F660 Track not present in AccurateRip database Copy OK

Track 7

Filename D:\Bezz Rip\07 - Flight To Jordan - Diamond Stud (Bonus Track).wav

Pre-gap length 0:00:00.67

Peak level 85.0 % Extraction speed 1.2 X Track quality 100.0 % Test CRC 8724007C Copy CRC 8724007C Track not present in AccurateRip database Copy OK

Track 8

Filename D:\Bezz Rip\08 - Flight To Jordan - I Should Care (Bonus Track).wav

Pre-gap length 0:00:01.37

Peak level 52.4 % Extraction speed 1.1 X Track quality 100.0 % Test CRC 78ACE023 Copy CRC 78ACE023 Track not present in AccurateRip database Copy OK

None of the tracks are present in the AccurateRip database

No errors occurred

End of status report

==== Log checksum E4A317CBA27BBAF59C7AC1307EF4E4461A6A615ED5C16553E60BF40DD87BB741 ====
 
REM GENRE JazzREM DATE 2011REM DISCID 640B4B08REM COMMENT "ExactAudioCopy v1.0b1"PERFORMER "Duke Jordan"TITLE "Flight To Jordan"FILE "01 - Flight To Jordan - Flight To Jordan.wav" WAVE TRACK 01 AUDIO TITLE "Flight To Jordan" PERFORMER "Duke Jordan" INDEX 01 00:00:00 TRACK 02 AUDIO TITLE "Starbrite" PERFORMER "Duke Jordan" INDEX 00 05:32:00FILE "02 - Flight To Jordan - Starbrite.wav" WAVE INDEX 01 00:00:00 TRACK 03 AUDIO TITLE "Squawkin'" PERFORMER "Duke Jordan" INDEX 00 07:47:34FILE "03 - Flight To Jordan - Squawkin'.wav" WAVE INDEX 01 00:00:00 TRACK 04 AUDIO TITLE "Deacon Joe" PERFORMER "Duke Jordan" INDEX 00 04:58:55FILE "04 - Flight To Jordan - Deacon Joe.wav" WAVE INDEX 01 00:00:00 TRACK 05 AUDIO TITLE "Split Quick" PERFORMER "Duke Jordan" INDEX 00 08:41:41FILE "05 - Flight To Jordan - Split Quick.wav" WAVE INDEX 01 00:00:00 TRACK 06 AUDIO TITLE "Si-Joya" PERFORMER "Duke Jordan" INDEX 00 05:11:23FILE "06 - Flight To Jordan - Si-Joya.wav" WAVE INDEX 01 00:00:00 TRACK 07 AUDIO TITLE "Diamond Stud (Bonus Track)" PERFORMER "Duke Jordan" INDEX 00 06:46:15FILE "07 - Flight To Jordan - Diamond Stud (Bonus Track).wav" WAVE INDEX 01 00:00:00 TRACK 08 AUDIO TITLE "I Should Care (Bonus Track)" PERFORMER "Duke Jordan" INDEX 00 05:03:64FILE "08 - Flight To Jordan - I Should Care (Bonus Track).wav" WAVE INDEX 01 00:00:00
Stanley Turrentine (tenor saxophone);
Dizzy Reece (trumpet);
Reggie Workman (bass guitar);
Art Taylor (drums)


Трекер:  [ 29-Янв-2012 16:59 ]

  

Скачать .torrent

Размер .torrent файла 13 KB


Размер: 288 MB
Хэш (hash) релиза: 1968070be787033f6a71e466c54eda9c96c9fd40

Торренты, похожие на Duke Jordan - Flight to Jordan - скачать торрент

Форум Название Автор Размер S L Добавлен
Jazz, Blues (lossless) ·· (Bop/Hard Bop) Duke Jordan - Flight To Jordan - 2007, FLAC (image+.cue), lossless Umakiro 303730576290 MB 0 0 1327735941

10:32

28-Янв-12

Еще никто не оставлял запись к записи скачать торрент Duke Jordan - Flight to Jordan - . Будь первым!

!Обратная связь