Скачать через торрент музыку Bob Mintzer - Twin Tenors - 1993, FLAC бесплатно без регистрации torrent

Если у вас наблюдаются проблемы со скриншотами, переходом по ссылками, скачиванием торрентов - проблемы в блокировщике рекламы AdBlock. #хорошегоДня!


Статистика раздачи
Размер:  349 MB   |    Зарегистрирован:  5 лет 8 месяцев   |    .torrent скачан:  39 раз   |   
Раздают:  1  
   
Загрузка...
 
Автор Сообщение

Umakiro

avatar Umakiro


Bob Mintzer / Twin Tenors

Жанр: Post-Bop, Small Band, Saxophone Jazz
Страна-производитель диска: USA
Год издания диска: 1993
Издатель (лейбл): Novus
Номер по каталогу: 63173
Страна: US New Rochelle, NY
Аудиокодек: FLAC (*.flac)
Тип рипа: tracks+.cue
Битрейт аудио: lossless
Продолжительность: 00:58:53
Источник (релизер): valechek82
Наличие сканов в содержимом раздачи: нет
Треклист:
01. The Saxophone [05:48]
02. Giant Steps (Version 1) [06:07]
03. Three Pieces [03:44]
04. Tenorman's Lament [06:33]
05. Two T's [08:16]
06. Sonny [05:27]
07. Body And Soul: Everything Happens To Me [12:25]
08. Three Little Words [05:28]
09. Giant Steps (Version 2) [05:01]
 
EAC extraction logfile from 4. February 2008, 21:56 for CDTwin Tenors / Twin Tenors

Used drive : TEAC DVD-ROM DV-28E-C Adapter: 1 ID: 0Read mode : Secure with NO C2, accurate stream, disable cacheRead offset correction : 102Overread into Lead-In and Lead-Out : No

Used output format : C:\Program Files\Exact Audio Copy\flac-1.1.3-win\bin\flac.exe (User Defined Encoder) 192 kBit/s Additional command line options : -8 -V -T "ARTIST=%a" -T "TITLE=%t" -T "ALBUM=%g" -T "DATE=%y" -T "TRACKNUMBER=%n" -T "GENRE=%m" -T "COMMENT=EAC FLAC -8" %s

Other options : Fill up missing offset samples with silence : Yes Delete leading and trailing silent blocks : No Installed external ASPI interface

Track 1 Filename C:\Dump\01 - The Saxophone.wav

Pre-gap length 0:00:02.00

Peak level 97.7 % Track quality 100.0 % Test CRC 8AB790AD Copy CRC 8AB790AD Copy OK

Track 2 Filename C:\Dump\02 - Giant Steps (Version 1).wav

Pre-gap length 0:00:01.00

Peak level 97.7 % Track quality 100.0 % Test CRC 4F5C3EEC Copy CRC 4F5C3EEC Copy OK

Track 3 Filename C:\Dump\03 - Three Pieces.wav

Pre-gap length 0:00:01.50

Peak level 97.7 % Track quality 100.0 % Test CRC 404E6677 Copy CRC 404E6677 Copy OK

Track 4 Filename C:\Dump\04 - Tenorman's Lament.wav

Pre-gap length 0:00:00.50

Peak level 59.9 % Track quality 100.0 % Test CRC 5ED940B1 Copy CRC 5ED940B1 Copy OK

Track 5 Filename C:\Dump\05 - Two T's.wav

Pre-gap length 0:00:01.49

Peak level 97.7 % Track quality 100.0 % Test CRC 99FC0002 Copy CRC 99FC0002 Copy OK

Track 6 Filename C:\Dump\06 - Sonny.wav

Pre-gap length 0:00:00.50

Peak level 97.7 % Track quality 100.0 % Test CRC 54F6E37F Copy CRC 54F6E37F Copy OK

Track 7 Filename C:\Dump\07 - Body And Soul- Everything Happens To Me.wav

Pre-gap length 0:00:01.49

Peak level 97.7 % Track quality 100.0 % Test CRC A1CC4EFB Copy CRC A1CC4EFB Copy OK

Track 8 Filename C:\Dump\08 - Three Little Words.wav

Pre-gap length 0:00:01.50

Peak level 97.7 % Track quality 100.0 % Test CRC 355E0E3A Copy CRC 355E0E3A Copy OK

Track 9 Filename C:\Dump\09 - Giant Steps (Version 2).wav

Pre-gap length 0:00:00.66

Peak level 97.7 % Track quality 100.0 % Test CRC 064D3156 Copy CRC 064D3156 Copy OK

No errors occured

End of status report
 
REM GENRE JazzREM DATE 1993REM DISCID 6B0DD609REM COMMENT "ExactAudioCopy v0.95b3"PERFORMER "Twin Tenors"TITLE "Twin Tenors"FILE "01 - The Saxophone.wav" WAVE TRACK 01 AUDIO TITLE "The Saxophone" PERFORMER "Twin Tenors" INDEX 01 00:00:00 TRACK 02 AUDIO TITLE "Giant Steps (Version 1)" PERFORMER "Twin Tenors" INDEX 00 05:48:35FILE "02 - Giant Steps (Version 1).wav" WAVE INDEX 01 00:00:00 TRACK 03 AUDIO TITLE "Three Pieces" PERFORMER "Twin Tenors" INDEX 00 06:07:47FILE "03 - Three Pieces.wav" WAVE INDEX 01 00:00:00 TRACK 04 AUDIO TITLE "Tenorman's Lament" PERFORMER "Twin Tenors" INDEX 00 03:44:67FILE "04 - Tenorman's Lament.wav" WAVE INDEX 01 00:00:00 TRACK 05 AUDIO TITLE "Two T's" PERFORMER "Twin Tenors" INDEX 00 06:33:10FILE "05 - Two T's.wav" WAVE INDEX 01 00:00:00 TRACK 06 AUDIO TITLE "Sonny" PERFORMER "Twin Tenors" INDEX 00 08:16:45FILE "06 - Sonny.wav" WAVE INDEX 01 00:00:00 TRACK 07 AUDIO TITLE "Body And Soul: Everything Happens To Me" PERFORMER "Twin Tenors" INDEX 00 05:27:35FILE "07 - Body And Soul- Everything Happens To Me.wav" WAVE INDEX 01 00:00:00 TRACK 08 AUDIO TITLE "Three Little Words" PERFORMER "Twin Tenors" INDEX 00 12:25:40FILE "08 - Three Little Words.wav" WAVE INDEX 01 00:00:00 TRACK 09 AUDIO TITLE "Giant Steps (Version 2)" PERFORMER "Twin Tenors" INDEX 00 05:28:25FILE "09 - Giant Steps (Version 2).wav" WAVE INDEX 01 00:00:00
 
-----------------------

DON'T MODIFY THIS FILE

-----------------------

PERFORMER: auCDtect Task Manager, ver. 1.5.1RC6 build 1.5.1.7Copyright (c) 2008-2010 y-soft. All rights reservedhttp://y-soft.org

ANALYZER: auCDtect: CD records authenticity detector, version 0.8.2Copyright (c) 2004 Oleg Berngardt. All rights reserved.Copyright (c) 2004 Alexander Djourik. All rights reserved.

FILE: 09 - Giant Steps (Version 2).flac Size: 32840848 Hash: DBED37E31B69FE91F53CFAFC54FDD815 Accuracy: -m0 Conclusion: CDDA 100% Signature: BE0918DEAD96B06C301C248A5AB91459AF085A98FILE: 08 - Three Little Words.flac Size: 35863053 Hash: DA3679535E240B432FFC5818164A9A80 Accuracy: -m0 Conclusion: CDDA 100% Signature: 64981B0012691F726C6F9D89EF4978B67C5CFDEFFILE: 07 - Body And Soul- Everything Happens To Me.flac Size: 70470883 Hash: 645F209F69599054D8A295ABB62ABAC5 Accuracy: -m0 Conclusion: CDDA 100% Signature: 8FC12829369D41AA89E7B82423E34A0AA0B48A0CFILE: 06 - Sonny.flac Size: 34131200 Hash: EC547216080AAEC40418A3C0A387AEA6 Accuracy: -m0 Conclusion: CDDA 99% Signature: 5F53076019B4B176C69D9B63239B626F6CA01E71FILE: 05 - Two T's.flac Size: 56291686 Hash: 7B53187CE022914053FE5495A46C492C Accuracy: -m0 Conclusion: CDDA 100% Signature: 374BDA0F8114864A0E2CF4B73E43D9AD54D6CCFBFILE: 04 - Tenorman's Lament.flac Size: 31763697 Hash: 83CA125BBDEBBEECD78079A8445FF0F7 Accuracy: -m0 Conclusion: CDDA 99% Signature: 1D737C37D9C19010FEC6EF076C8A165290558CA7FILE: 03 - Three Pieces.flac Size: 25523108 Hash: B2BDF90AEC5FE5142C9633DA480E7E1D Accuracy: -m0 Conclusion: CDDA 99% Signature: B3D7EDF24633FB01642862422DAD2D1B58A98CCDFILE: 02 - Giant Steps (Version 1).flac Size: 42337275 Hash: 01991696A3B64FB7706C2E676AE6B381 Accuracy: -m0 Conclusion: CDDA 100% Signature: 6663411E5EB53A99485597F17A38A8B7CA1701C7FILE: 01 - The Saxophone.flac Size: 36741595 Hash: 687C837631DCE25E6518D4DD586A623C Accuracy: -m0 Conclusion: CDDA 100% Signature: 84B50FA5B95FFD292DAEA0EB3D2F19166D7B59CE
Bob Mintzer - Tenor Saxophone
Michael Brecker - Tenor Saxophone
Don Grolnick - Piano
Michael Formanek - Bass
Peter Erskine - Drums


Трекер:  [ 29-Янв-2012 16:59 ]

  

Скачать .torrent

Размер .torrent файла 15 KB


Размер: 349 MB
Хэш (hash) релиза: 8472c03625bc7dfbed9a80b2b4fbcb415c5fb0da

Еще никто не оставлял запись к записи скачать торрент Bob Mintzer - Twin Tenors - 1993, FLAC . Будь первым!

!Обратная связь