Скачать через торрент музыку Sonny Rollins - Sonny Rollins & Co.1964 - 1995, APE бесплатно без регистрации torrent

Если у вас наблюдаются проблемы со скриншотами, переходом по ссылками, скачиванием торрентов - проблемы в блокировщике рекламы AdBlock. #хорошегоДня!


Статистика раздачи
Размер:  385 MB   |    Зарегистрирован:  5 лет 8 месяцев   |    .torrent скачан:  41 раз   |   
Раздают:  1  
   
Загрузка...
 
Автор Сообщение

Umakiro

avatar Umakiro


Sonny Rollins / Sonny Rollins & Co. 1064

Жанр: Hard Bop, Saxophone Jazz
Страна-производитель диска: USA
Год издания диска: 1995
Издатель (лейбл): BlueBird
Номер по каталогу: 07863-66530-2
Страна: US New York, NY
Аудиокодек: APE (*.ape)
Тип рипа: image+.cue
Битрейт аудио: lossless
Продолжительность: 01:05:33
Источник (релизер): Oceandrop
Наличие сканов в содержимом раздачи: да
Треклист:
01. Django (take 1) [05:26]
02. Afternoon In Paris (take 12) [03:03]
03. Now's The Time (take 3) [15:55]
04. Four (alternate take) [07:53]
05. Blue N' Boogie [05:31]
06. Night & Day [03:19]
07. Three Little Words [02:16]
08. My Ship [04:13]
09. Love Letters [03:27]
10. Long Ago & Far Away [02:49]
11. Winter Wonderland [05:18]
12. When You Wish Upon A Star [03:17]
13. Autumn Nocturne [03:01]
 
EAC extraction logfile from 12. March 2006, 11:02 for CDSonny Rollins / Sonny Rollins & Co. 1964

Used drive : SONY CD-RW CRX300E Adapter: 0 ID: 1Read mode : Secure with NO C2, accurate stream, disable cacheRead offset correction : 6Overread into Lead-In and Lead-Out : No

Used output format : Internal WAV Routines 44.100 Hz; 16 Bit; Stereo

Other options : Fill up missing offset samples with silence : Yes Delete leading and trailing silent blocks : No Installed external ASPI interface

Range status and errorsSelected range Filename E:\Image files\Sonny Rollins -Sonny Rollins & Co. 1964\CDImage.wav

Peak level 99.4 % Range quality 99.9 % CRC EACF2DAE Copy OK

No errors occured

End of status report
 
CATALOG 0000000000000PERFORMER "Sonny Rollins"TITLE "Sonny Rollins & Co. 1964"FILE "CDImage.ape" WAVE TRACK 01 AUDIO TITLE "Django (take 1)" PERFORMER "Sonny Rollins" INDEX 01 00:00:00 TRACK 02 AUDIO TITLE "Afternoon In Paris (take 12)" PERFORMER "Sonny Rollins" INDEX 00 05:25:22 INDEX 01 05:26:20 TRACK 03 AUDIO TITLE "Now's The Time (take 3)" PERFORMER "Sonny Rollins" INDEX 00 08:29:00 INDEX 01 08:30:00 TRACK 04 AUDIO TITLE "Four (alternate take)" PERFORMER "Sonny Rollins" INDEX 00 24:24:40 INDEX 01 24:25:30 TRACK 05 AUDIO TITLE "Blue N' Boogie" PERFORMER "Sonny Rollins" INDEX 01 32:18:45 TRACK 06 AUDIO TITLE "Night & Day" PERFORMER "Sonny Rollins" INDEX 01 37:49:50 TRACK 07 AUDIO TITLE "Three Little Words" PERFORMER "Sonny Rollins" INDEX 00 41:08:00 INDEX 01 41:09:45 TRACK 08 AUDIO TITLE "My Ship" PERFORMER "Sonny Rollins" INDEX 00 43:25:37 INDEX 01 43:25:67 TRACK 09 AUDIO TITLE "Love Letters" PERFORMER "Sonny Rollins" INDEX 00 47:38:22 INDEX 01 47:39:62 TRACK 10 AUDIO TITLE "Long Ago & Far Away" PERFORMER "Sonny Rollins" INDEX 00 51:06:22 INDEX 01 51:07:25 TRACK 11 AUDIO TITLE "Winter Wonderland" PERFORMER "Sonny Rollins" INDEX 00 53:55:20 INDEX 01 53:56:42 TRACK 12 AUDIO TITLE "When You Wish Upon A Star" PERFORMER "Sonny Rollins" INDEX 00 59:14:02 INDEX 01 59:14:62 TRACK 13 AUDIO TITLE "Autumn Nocturne" PERFORMER "Sonny Rollins" INDEX 00 62:31:32 INDEX 01 62:32:37
 
-----------------------

DON'T MODIFY THIS FILE

-----------------------

PERFORMER: auCDtect Task Manager, ver. 1.5.1RC6 build 1.5.1.7Copyright (c) 2008-2010 y-soft. All rights reservedhttp://y-soft.org

ANALYZER: auCDtect: CD records authenticity detector, version 0.8.2Copyright (c) 2004 Oleg Berngardt. All rights reserved.Copyright (c) 2004 Alexander Djourik. All rights reserved.

FILE: CDImage.ape Size: 388004204 Hash: E330C98EC6752148E2DABDD1F1CE6F90 Accuracy: -m0 Conclusion: CDDA 100% Signature: AE8725839A91FF8A16D6E6B7EDAEB06F358277CA
Sonny Rollins - tenor saxophone
Herbie Hancock - piano
Jim Hall - guitar
Ron Carter, Bob Cranshaw - bass
Roy McCurdy, Mickey Roker - drums


Трекер:  [ 29-Янв-2012 16:58 ]

  

Скачать .torrent

Размер .torrent файла 16 KB


Размер: 385 MB
Хэш (hash) релиза: 1dba743c9e9263db3d0245feecb0b4c96b9eeaf1

Еще никто не оставлял запись к записи скачать торрент Sonny Rollins - Sonny Rollins & Co.1964 - 1995, APE . Будь первым!

!Обратная связь