Скачать через торрент музыку Wallace Roney - No Job Too Big or Small - 2003, FLAC бесплатно без регистрации torrent

Если у вас наблюдаются проблемы со скриншотами, переходом по ссылками, скачиванием торрентов - проблемы в блокировщике рекламы AdBlock. #хорошегоДня!


Статистика раздачи
Размер:  491 MB   |    Зарегистрирован:  5 лет 8 месяцев   |    .torrent скачан:  30 раз   |   
Раздают:  1  
   
Загрузка...
 
Автор Сообщение

Umakiro

avatar Umakiro


Wallace Roney / No Job Too Big or Small

Жанр: Post-Bop, Trumpet Jazz
Страна-производитель диска: USA
Год издания диска: 2003
Издатель (лейбл): Savoy Jazz
Номер по каталогу: SVY 17274
Страна: USA Philadelphia, PA
Аудиокодек: FLAC (*.flac)
Тип рипа: tracks+.cue
Битрейт аудио: lossless
Продолжительность: 01:15:29
Источник (релизер): сеть
Наличие сканов в содержимом раздачи: нет
Треклист:
01. Melchizedek [07:30]
02. Alone Together [08:50]
03. Daahoud [06:05]
04. Obsession [06:07]
05. Blue In Green [05:43]
06. Donna Lee [04:20]
07. Solar [08:54]
08. Float [05:45]
09. Lost [06:07]
10. For Duke [08:22]
11. Love For Sale [07:40]
 
Exact Audio Copy V0.99 prebeta 5 from 4. May 2009

EAC extraction logfile from 7. September 2010, 20:53

Wallace Roney / No Job Too Big Or Small

Used drive : TSSTcorpCDDVDW TS-L633A Adapter: 0 ID: 1

Read mode : SecureUtilize accurate stream : YesDefeat audio cache : YesMake use of C2 pointers : No

Read offset correction : 6Overread into Lead-In and Lead-Out : NoFill up missing offset samples with silence : YesDelete leading and trailing silent blocks : NoNull samples used in CRC calculations : YesUsed interface : Installed external ASPI interfaceGap handling : Appended to previous track

Used output format : User Defined EncoderSelected bitrate : 192 kBit/sQuality : HighAdd ID3 tag : NoCommand line compressor : C:\Program Files\FLAC\flac.exeAdditional command line options : -8 -V -T "ARTIST=%a" -T "TITLE=%t" -T "ALBUM=%g" -T "DATE=%y" -T "TRACKNUMBER=%n" -T "GENRE=%m" -T "COMMENT=EAC FLAC -8" %s

TOC of the extracted CD

Track | Start | Length | Start sector | End sector --------------------------------------------------------- 1 | 0:00.00 | 7:32.60 | 0 | 33959 2 | 7:32.60 | 8:53.27 | 33960 | 73961 3 | 16:26.12 | 6:07.50 | 73962 | 101536 4 | 22:33.62 | 6:09.50 | 101537 | 129261 5 | 28:43.37 | 5:45.65 | 129262 | 155201 6 | 34:29.27 | 4:22.30 | 155202 | 174881 7 | 38:51.57 | 8:56.65 | 174882 | 215146 8 | 47:48.47 | 5:47.05 | 215147 | 241176 9 | 53:35.52 | 6:10.05 | 241177 | 268931 10 | 59:45.57 | 8:24.28 | 268932 | 306759 11 | 68:10.10 | 7:40.22 | 306760 | 341281

Track 1

Filename F:\Wallace Roney - No Job Too Big Or Small (2003) [FLAC] {SAVOY JAZZ}\01 - Melchizedek.wav

Pre-gap length 0:00:02.00

Peak level 88.7 % Track quality 100.0 % Test CRC 5234ED92 Copy CRC 5234ED92 Cannot be verified as accurate (confidence 2) [2877CB0F], AccurateRip returned [DE93E273] Copy OK

Track 2

Filename F:\Wallace Roney - No Job Too Big Or Small (2003) [FLAC] {SAVOY JAZZ}\02 - Alone Together.wav

Pre-gap length 0:00:02.04

Peak level 96.7 % Track quality 100.0 % Test CRC 5608B316 Copy CRC 5608B316 Cannot be verified as accurate (confidence 2) [C7E69232], AccurateRip returned [9DE81B66] Copy OK

Track 3

Filename F:\Wallace Roney - No Job Too Big Or Small (2003) [FLAC] {SAVOY JAZZ}\03 - Daahoud.wav

Pre-gap length 0:00:02.62

Peak level 90.3 % Track quality 100.0 % Test CRC E05C91A6 Copy CRC E05C91A6 Cannot be verified as accurate (confidence 3) [918FE33C], AccurateRip returned [5F6B21FC] Copy OK

Track 4

Filename F:\Wallace Roney - No Job Too Big Or Small (2003) [FLAC] {SAVOY JAZZ}\04 - Obsession.wav

Pre-gap length 0:00:01.80

Peak level 94.8 % Track quality 100.0 % Test CRC 11FBE61F Copy CRC 11FBE61F Cannot be verified as accurate (confidence 3) [355EE9B8], AccurateRip returned [4F499764] Copy OK

Track 5

Filename F:\Wallace Roney - No Job Too Big Or Small (2003) [FLAC] {SAVOY JAZZ}\05 - Blue In Green.wav

Pre-gap length 0:00:02.09

Peak level 97.6 % Track quality 100.0 % Test CRC 4C36D60B Copy CRC 4C36D60B Cannot be verified as accurate (confidence 3) [87404F34], AccurateRip returned [133CFC30] Copy OK

Track 6

Filename F:\Wallace Roney - No Job Too Big Or Small (2003) [FLAC] {SAVOY JAZZ}\06 - Donna Lee.wav

Pre-gap length 0:00:02.46

Peak level 88.3 % Track quality 100.0 % Test CRC 8975A4D1 Copy CRC 8975A4D1 Cannot be verified as accurate (confidence 3) [5C8C52CE], AccurateRip returned [7026C52A] Copy OK

Track 7

Filename F:\Wallace Roney - No Job Too Big Or Small (2003) [FLAC] {SAVOY JAZZ}\07 - Solar.wav

Pre-gap length 0:00:01.69

Peak level 96.3 % Track quality 100.0 % Test CRC D049F4D4 Copy CRC D049F4D4 Cannot be verified as accurate (confidence 3) [1E405223], AccurateRip returned [800EFF93] Copy OK

Track 8

Filename F:\Wallace Roney - No Job Too Big Or Small (2003) [FLAC] {SAVOY JAZZ}\08 - Float.wav

Pre-gap length 0:00:02.09

Peak level 99.4 % Track quality 100.0 % Test CRC 2698E164 Copy CRC 2698E164 Cannot be verified as accurate (confidence 3) [58CFE639], AccurateRip returned [033D05CD] Copy OK

Track 9

Filename F:\Wallace Roney - No Job Too Big Or Small (2003) [FLAC] {SAVOY JAZZ}\09 - Lost.wav

Pre-gap length 0:00:01.93

Peak level 89.7 % Track quality 100.0 % Test CRC 02A5DF09 Copy CRC 02A5DF09 Cannot be verified as accurate (confidence 3) [4AE2F7FC], AccurateRip returned [E91532E8] Copy OK

Track 10

Filename F:\Wallace Roney - No Job Too Big Or Small (2003) [FLAC] {SAVOY JAZZ}\10 - For Duke.wav

Pre-gap length 0:00:02.20

Peak level 99.1 % Track quality 99.9 % Test CRC 561E129F Copy CRC 561E129F Cannot be verified as accurate (confidence 3) [D2F22A4C], AccurateRip returned [611BEF00] Copy OK

Track 11

Filename F:\Wallace Roney - No Job Too Big Or Small (2003) [FLAC] {SAVOY JAZZ}\11 - Love For Sale.wav

Pre-gap length 0:00:02.37

Peak level 90.1 % Track quality 100.0 % Test CRC 104476F3 Copy CRC 104476F3 Cannot be verified as accurate (confidence 3) [712CC2A4], AccurateRip returned [866FEFE4] Copy OK

No tracks could be verified as accurateYou may have a different pressing from the one(s) in the database

No errors occurred

End of status report
 
REM GENRE JazzREM DATE 2003REM DISCID 9E11C60BREM COMMENT "ExactAudioCopy v0.99pb5"PERFORMER "Wallace Roney"TITLE "No Job Too Big Or Small"FILE "01 - Melchizedek.wav" WAVE TRACK 01 AUDIO TITLE "Melchizedek" PERFORMER "Wallace Roney" INDEX 01 00:00:00 TRACK 02 AUDIO TITLE "Alone Together" PERFORMER "Wallace Roney" INDEX 00 07:30:57FILE "02 - Alone Together.wav" WAVE INDEX 01 00:00:00 TRACK 03 AUDIO TITLE "Daahoud" PERFORMER "Wallace Roney" INDEX 00 08:50:55FILE "03 - Daahoud.wav" WAVE INDEX 01 00:00:00 TRACK 04 AUDIO TITLE "Obsession" PERFORMER "Wallace Roney" INDEX 00 06:05:65FILE "04 - Obsession.wav" WAVE INDEX 01 00:00:00 TRACK 05 AUDIO TITLE "Blue In Green" PERFORMER "Wallace Roney" INDEX 00 06:07:43FILE "05 - Blue In Green.wav" WAVE INDEX 01 00:00:00 TRACK 06 AUDIO TITLE "Donna Lee" PERFORMER "Wallace Roney" INDEX 00 05:43:30FILE "06 - Donna Lee.wav" WAVE INDEX 01 00:00:00 TRACK 07 AUDIO TITLE "Solar" PERFORMER "Wallace Roney" INDEX 00 04:20:53FILE "07 - Solar.wav" WAVE INDEX 01 00:00:00 TRACK 08 AUDIO TITLE "Float" PERFORMER "Wallace Roney" INDEX 00 08:54:58FILE "08 - Float.wav" WAVE INDEX 01 00:00:00 TRACK 09 AUDIO TITLE "Lost" PERFORMER "Wallace Roney" INDEX 00 05:45:10FILE "09 - Lost.wav" WAVE INDEX 01 00:00:00 TRACK 10 AUDIO TITLE "For Duke" PERFORMER "Wallace Roney" INDEX 00 06:07:65FILE "10 - For Duke.wav" WAVE INDEX 01 00:00:00 TRACK 11 AUDIO TITLE "Love For Sale" PERFORMER "Wallace Roney" INDEX 00 08:22:00FILE "11 - Love For Sale.wav" WAVE INDEX 01 00:00:00
 
-----------------------

DON'T MODIFY THIS FILE

-----------------------

PERFORMER: auCDtect Task Manager, ver. 1.5.1RC6 build 1.5.1.7Copyright (c) 2008-2010 y-soft. All rights reservedhttp://y-soft.org

ANALYZER: auCDtect: CD records authenticity detector, version 0.8.2Copyright (c) 2004 Oleg Berngardt. All rights reserved.Copyright (c) 2004 Alexander Djourik. All rights reserved.

FILE: 11 - Love For Sale.flac Size: 51008121 Hash: 1D1D6E1AC3998CEB41B57EC9FAF293CB Accuracy: -m0 Conclusion: CDDA 100% Signature: 0D85A99A8C49445ADC56BDAF809C774F533D8443FILE: 10 - For Duke.flac Size: 65274159 Hash: 5B29D7151FB2A27E083E6015A07913A5 Accuracy: -m0 Conclusion: CDDA 100% Signature: 4752A5A6F3512AC3C11A7B0D21528B802144F134FILE: 09 - Lost.flac Size: 40103218 Hash: 5DBD04F3354C1B3D1595F85CBBE05972 Accuracy: -m0 Conclusion: CDDA 99% Signature: 5CBFA1A1C13BE2E520ECE8272FB7ED47956271C2FILE: 08 - Float.flac Size: 37470281 Hash: 1D5B6EDCFC65FF2E37DA5B787730252C Accuracy: -m0 Conclusion: CDDA 100% Signature: 2EE87649CFCF9A95F90845FF7A0C9A54F8A4F7E5FILE: 07 - Solar.flac Size: 59176620 Hash: 649D8341BB93514FD0206C0092BCD946 Accuracy: -m0 Conclusion: CDDA 100% Signature: 6A36C91C9FE3A25B98E9EDC74E2B952C5695EDC1FILE: 06 - Donna Lee.flac Size: 30833638 Hash: 1E59F218FC2BC415C8B7450F8787E654 Accuracy: -m0 Conclusion: CDDA 100% Signature: 75C854F21DEABC685C795B42AF65FB5B527D2E65FILE: 05 - Blue In Green.flac Size: 28273445 Hash: 0E72A43CF9CF925BC2A56BD5C149CF27 Accuracy: -m0 Conclusion: CDDA 100% Signature: 3885ACABFC249764EF0340F571CC22502D24608BFILE: 04 - Obsession.flac Size: 46096482 Hash: 7738D2B4F57DA873FB8806D9B21B787F Accuracy: -m0 Conclusion: CDDA 99% Signature: 8F04D80E415776EA36C811C865179A386056507EFILE: 03 - Daahoud.flac Size: 43701290 Hash: 57AF0C13A08949F25B5D4F0504589055 Accuracy: -m0 Conclusion: CDDA 100% Signature: E9B3A1C5C34CD23D828478C388778B8B9F795181FILE: 02 - Alone Together.flac Size: 57100127 Hash: 470F42D095B6E475C806C7F561F39B27 Accuracy: -m0 Conclusion: CDDA 100% Signature: E37DED9FA101A229A05AB90023B2D35E510422B6FILE: 01 - Melchizedek.flac Size: 55415286 Hash: 112332CD2D392801E1CB4C7C1D141F04 Accuracy: -m0 Conclusion: CDDA 100% Signature: FAF0D41F5FE1FE99F13BE07905F9F222771A33AF
Wallace Roney (trumpet); Kenny Garrett (alto saxophone); Gary Thomas (tenor saxophone, flute); Antoine Roney, Ravi Coltrane (tenor saxophone); Jacky Terrasson, Donald Brown, Geri Allen, Mulgrew Miller (piano); Peter Washington, Christian McBride, Charnett Moffatt (bass); Eric Allen, Cindy Blackman, Kenny Washington, Tony Williams (drums).


Трекер:  [ 29-Янв-2012 16:58 ]

  

Скачать .torrent

Размер .torrent файла 20 KB


Размер: 491 MB
Хэш (hash) релиза: 7e6748bce9bcdfb03fa79843143c8dc51c12a946

Еще никто не оставлял запись к записи скачать торрент Wallace Roney - No Job Too Big or Small - 2003, FLAC . Будь первым!

!Обратная связь