Скачать через торрент музыку Chuck Manning - Notes from the Real - 2008, FLAC бесплатно без регистрации torrent

Если у вас наблюдаются проблемы со скриншотами, переходом по ссылками, скачиванием торрентов - проблемы в блокировщике рекламы AdBlock. #хорошегоДня!


Статистика раздачи
Размер:  492 MB   |    Зарегистрирован:  5 лет 8 месяцев   |    .torrent скачан:  27 раз   |   
Раздают:  1  
   
Загрузка...
 
Автор Сообщение

Umakiro

avatar Umakiro


Chuck Manning / Notes from the Real

Жанр: Post-Bop, Saxophone Jazz
Страна-производитель диска: Switzerland
Год издания диска: 2008
Издатель (лейбл): TCB Records
Номер по каталогу: 27502
Страна: USA
Аудиокодек: FLAC (*.flac)
Тип рипа: image+.cue
Битрейт аудио: lossless
Продолжительность: 01:07:45
Источник (релизер): karelin
Наличие сканов в содержимом раздачи: нет(сетевые)
Треклист:
01. / I Didnt Know What Time It Was [07:00]
02. / Hey, It's You I'm Talkin' To [07:10]
03. / Ambrosia [04:22]
04. / The Spiritual [07:43]
05. / Byear [05:42]
06. / While We're Young [05:17]
07. / Eronel [07:13]
08. / Change Partners [07:36]
09. / I Believe In You [08:06]
10. / Dear Lord [07:32]
 
Exact Audio Copy V1.0 beta 1 from 15. November 2010

EAC extraction logfile from 27. November 2011, 14:29

Chuck Manning Quartet / Notes from the real

Used drive : ATAPI DVD A DH20A4P Adapter: 1 ID: 0

Read mode : SecureUtilize accurate stream : YesDefeat audio cache : YesMake use of C2 pointers : No

Read offset correction : 6Overread into Lead-In and Lead-Out : NoFill up missing offset samples with silence : YesDelete leading and trailing silent blocks : NoNull samples used in CRC calculations : YesUsed interface : Installed external ASPI interface

Used output format : User Defined EncoderSelected bitrate : 1024 kBit/sQuality : HighAdd ID3 tag : NoCommand line compressor : C:\Program Files\Exact Audio Copy\Flac\flac.exeAdditional command line options : -5 -V -T "ARTIST=%a" -T "TITLE=%t" -T "ALBUM=%g" -T "DATE=%y" -T "TRACKNUMBER=%n" -T "GENRE=%m" -T "COMMENT=[oStereo.ru]" %s

TOC of the extracted CD

Track | Start | Length | Start sector | End sector --------------------------------------------------------- 1 | 0:00.00 | 7:00.14 | 0 | 31513 2 | 7:00.14 | 7:10.03 | 31514 | 63766 3 | 14:10.17 | 4:22.71 | 63767 | 83487 4 | 18:33.13 | 7:43.36 | 83488 | 118248 5 | 26:16.49 | 5:42.17 | 118249 | 143915 6 | 31:58.66 | 5:17.70 | 143916 | 167760 7 | 37:16.61 | 7:13.63 | 167761 | 200298 8 | 44:30.49 | 7:36.09 | 200299 | 234507 9 | 52:06.58 | 8:06.34 | 234508 | 270991 10 | 60:13.17 | 7:32.07 | 270992 | 304898

Range status and errors

Selected range

Filename D:\Chuck Manning Quartet - Notes from the real - 2007 - [oStereo.ru] - TCB.wav

Peak level 100.0 % Extraction speed 0.3 X Range quality 100.0 % Test CRC 691D88B9 Copy CRC 691D88B9 Copy OK

No errors occurred

AccurateRip summary

Track 1 accurately ripped (confidence 1) [146C73E9]Track 2 accurately ripped (confidence 1) [1A49F8BF]Track 3 accurately ripped (confidence 1) [A6732CA0]Track 4 accurately ripped (confidence 1) [D6F4B315]Track 5 accurately ripped (confidence 1) [F33AAEDF]Track 6 accurately ripped (confidence 1) [A76D680E]Track 7 accurately ripped (confidence 1) [9B9FD1E9]Track 8 accurately ripped (confidence 1) [1F43D900]Track 9 accurately ripped (confidence 1) [7AEF3C47]Track 10 accurately ripped (confidence 1) [3C34F8D6]

All tracks accurately ripped

End of status report

==== Log checksum 902CC23F89A18C00DD732127E27831B273612FA735AD4881430B33B98E82C70B ====
 
REM GENRE JazzREM DATE 2007REM DISCID 7F0FE10AREM COMMENT "ExactAudioCopy v1.0b1"PERFORMER "Chuck Manning Quartet"TITLE "Notes from the real"FILE "Chuck Manning Quartet - Notes from the real - 2007 - [oStereo.ru] - TCB.flac" WAVE TRACK 01 AUDIO TITLE " / I Didnt Know What Time It Was" PERFORMER "Chuck Manning Quartet" FLAGS DCP INDEX 01 00:00:00 TRACK 02 AUDIO TITLE " / Hey, It's You I'm Talkin' To" PERFORMER "Chuck Manning Quartet" FLAGS DCP INDEX 00 06:58:14 INDEX 01 07:00:14 TRACK 03 AUDIO TITLE " / Ambrosia " PERFORMER "Chuck Manning Quartet" FLAGS DCP INDEX 00 14:08:17 INDEX 01 14:10:17 TRACK 04 AUDIO TITLE " / The Spiritual" PERFORMER "Chuck Manning Quartet" FLAGS DCP INDEX 00 18:31:13 INDEX 01 18:33:13 TRACK 05 AUDIO TITLE " / Byear" PERFORMER "Chuck Manning Quartet" FLAGS DCP INDEX 00 26:14:49 INDEX 01 26:16:49 TRACK 06 AUDIO TITLE " / While We're Young " PERFORMER "Chuck Manning Quartet" FLAGS DCP INDEX 00 31:56:66 INDEX 01 31:58:66 TRACK 07 AUDIO TITLE " / Eronel" PERFORMER "Chuck Manning Quartet" FLAGS DCP INDEX 00 37:14:61 INDEX 01 37:16:61 TRACK 08 AUDIO TITLE " / Change Partners " PERFORMER "Chuck Manning Quartet" FLAGS DCP INDEX 00 44:28:50 INDEX 01 44:30:49 TRACK 09 AUDIO TITLE " / I Believe In You" PERFORMER "Chuck Manning Quartet" FLAGS DCP INDEX 00 52:04:58 INDEX 01 52:06:58 TRACK 10 AUDIO TITLE " / Dear Lord" PERFORMER "Chuck Manning Quartet" FLAGS DCP INDEX 00 60:11:17 INDEX 01 60:13:17
 
-----------------------

DON'T MODIFY THIS FILE

-----------------------

PERFORMER: auCDtect Task Manager, ver. 1.5.1RC6 build 1.5.1.7Copyright (c) 2008-2010 y-soft. All rights reservedhttp://y-soft.org

ANALYZER: auCDtect: CD records authenticity detector, version 0.8.2Copyright (c) 2004 Oleg Berngardt. All rights reserved.Copyright (c) 2004 Alexander Djourik. All rights reserved.

FILE: Chuck Manning Quartet - Notes from the real - 2007 - [oStereo.ru] - TCB.flac Size: 514754543 Hash: 8C4E9C0BD8239F180F1983206DDD7FC3 Accuracy: -m0 Conclusion: CDDA 100% Signature: E48BF5939A4BD2E49FA82CFE8B992CAC798BC06A
Chuck Manning, sax
Jim Szilagyi, piano
Isla Eckinger, bass
Tim Pleasant, drums


Трекер:  [ 29-Янв-2012 16:58 ]

  

Скачать .torrent

Размер .torrent файла 20 KB


Размер: 492 MB
Хэш (hash) релиза: 9e58acfde1fe503c6fb59531df2d3c18a4c96a3d

Еще никто не оставлял запись к записи скачать торрент Chuck Manning - Notes from the Real - 2008, FLAC . Будь первым!

!Обратная связь